Ergebnis 1 bis 2 von 2

Thema: Shouwa Monogatari [Eingestellt][Jap-Dub][Ger-Sub][AAC][720p][HDTV] -subs4u

Dieser Thread wurde noch nicht bewertet. Bewerte ihn doch, wenn er dir gefällt!
  1. #1
    Erfahrener Otaku Avatar von DjRayleigh
    Registriert seit
    Jul 2015
    Beiträge
    195
    Punkte
    2.962
    Errungenschaften:
    1000 ErfahrungspunkteHyperaktivErste GruppeTomodachisSenpai

    Shouwa Monogatari [Eingestellt][Jap-Dub][Ger-Sub][AAC][720p][HDTV] -subs4u


    Shouwa Monogatari






    Kurzbeschreibung:
    Zitat Zitat von AniSearch.com
    Die 13-teilige Serie von WAO WORLD - den Machern von NITABOH und MEIN HEIMATLAND JAPAN - erzählt aus dem täglichen Leben der Familie Yamazaki, die im Tokio des Jahres 1964 lebt, als dort die Olympischen Spiele ausgetragen wurden.

    Klassisch-historisches Animefeeling wie bei `Die letzten Glühwürmchen´. Schön an dieser Serie sind neben der realistischen Darstellung der Story auch die Bildvergleiche im Opening vom Japan heute (in Realbildern), damals (in Realbildern) und damals in gezeichneter Form - außerdem die kleine Doku nach dem Schlusslied, bei der nochmal auf Besonderheiten aus der damaligen Zeit eingegangen wird - vorwiegend in Realbildern, sodass auch Japanreisende die Originalschauplätze des Animes besuchen können. Besondere Aufmerksamkeit verdient auch, dass das Schlusslied in JEDER Episode ein neues Highlight der damaligen Zeit widerspiegelt, sprich: die Hits von 1964 sind als Endingsongs zu hören. Da lohnt es sich, jedes Mal das Ending komplett anzuschauen!


    Spieldauer: 24min
    Genre: Drama
    Nebengenres: Slice-of-Life, Historical Setting,
    Jahr: 2011
    Sprache: Japanisch
    Untertitel: Deutsch
    Größe pro Folge: ~189 MiB
    Episodenanzahl: 6/13
    Format: MP4
    Auflösung: 720p (16:9)
    Videocodec: x264 (AVC)
    Audiocodec: AAC
    Releasegruppe: subs4u
    Hoster: Uploaded, Share-Online


    MediaInfo
    Code:
    
    Format                                   : MPEG-4
    Format profile                           : Base Media
    Codec ID                                 : isom
    File size                                : 189 MiB
    Duration                                 : 24mn 29s
    Overall bit rate                         : 1 079 Kbps
    Encoded date                             : UTC 1970-01-01 00:00:00
    Tagged date                              : UTC 1970-01-01 00:00:00
    Writing application                      : Lavf53.6.0
    
    Video
    ID                                       : 1
    Format                                   : AVC
    Format/Info                              : Advanced Video Codec
    Format profile                           : [email protected]
    Format settings, CABAC                   : Yes
    Format settings, ReFrames                : 9 frames
    Codec ID                                 : avc1
    Codec ID/Info                            : Advanced Video Coding
    Duration                                 : 24mn 29s
    Bit rate                                 : 910 Kbps
    Width                                    : 1 280 pixels
    Height                                   : 720 pixels
    Display aspect ratio                     : 16:9
    Frame rate mode                          : Variable
    Frame rate                               : 23.976 fps
    Minimum frame rate                       : 23.810 fps
    Maximum frame rate                       : 24.390 fps
    Color space                              : YUV
    Chroma subsampling                       : 4:2:0
    Bit depth                                : 8 bits
    Scan type                                : Progressive
    Bits/(Pixel*Frame)                       : 0.041
    Stream size                              : 159 MiB (84%)
    Writing library                          : x264 core 115 r1995 c1e60b9
    Encoding settings                        : cabac=1 / ref=9 / deblock=1:0:0 / analyse=0x3:0x133 / me=umh / subme=10 / psy=1 / psy_rd=1.00:0.00 / mixed_ref=1 / me_range=24 / chroma_me=1 / trellis=2 / 8x8dct=1 / cqm=0 / deadzone=21,11 / fast_pskip=1 / chroma_qp_offset=-2 / threads=4 / sliced_threads=0 / nr=0 / decimate=1 / interlaced=0 / bluray_compat=0 / constrained_intra=0 / bframes=16 / b_pyramid=0 / b_adapt=2 / b_bias=0 / direct=3 / weightb=1 / open_gop=0 / weightp=2 / keyint=300 / keyint_min=23 / scenecut=40 / intra_refresh=0 / rc_lookahead=60 / rc=crf / mbtree=1 / crf=20.0 / qcomp=0.60 / qpmin=0 / qpmax=69 / qpstep=4 / ip_ratio=1.40 / aq=2:1.00
    Encoded date                             : UTC 1970-01-01 00:00:00
    Tagged date                              : UTC 1970-01-01 00:00:00
    
    Audio
    ID                                       : 2
    Format                                   : AAC
    Format/Info                              : Advanced Audio Codec
    Format profile                           : LC
    Codec ID                                 : 40
    Duration                                 : 24mn 29s
    Bit rate mode                            : Constant
    Bit rate                                 : 163 Kbps
    Channel(s)                               : 2 channels
    Channel positions                        : Front: L R
    Sampling rate                            : 48.0 KHz
    Compression mode                         : Lossy
    Stream size                              : 28.5 MiB (15%)
    Encoded date                             : UTC 1970-01-01 00:00:00
    Tagged date                              : UTC 1970-01-01 00:00:00
    
    





    Geschützter Bereich - Bedanke dich beim Poster, um den Bereich sehen zu können
    Hier erfährst Du wie Du Dich bedanken kannst oder werde jetzt Premium Mitglied ab einer Spende von 5€ und erhalte sofortigen Zugriff auf den Downloadbereich!


    [Links sind nur für registrierte und aktivierte Nutzer sichtbar. Klicke hier um dich zu registrieren.]
    Geändert von DjRayleigh (19. February 2016 um 04:08 Uhr) Grund: E6+SO ON

    [Links sind nur für registrierte und aktivierte Nutzer sichtbar. Klicke hier um dich zu registrieren.]
    Support über PN
    =
    AKTIV

  2. 4 Benutzer sagen Danke:

    Frag0042 (18. February 2016),lucky_mer (17. February 2016),midnighter (16. March 2016),Sporrdig (23. May 2016)

  3. #2
    Erfahrener Otaku Avatar von DjRayleigh
    Registriert seit
    Jul 2015
    Beiträge
    195
    Punkte
    2.962
    Errungenschaften:
    1000 ErfahrungspunkteHyperaktivErste GruppeTomodachisSenpai

    AW: Shouwa Monogatari [Laufend][Jap-Dub][Ger-Sub][AAC][720p][HDTV] -subs4u

    Folge6+ Share-Online Links drin

    [Links sind nur für registrierte und aktivierte Nutzer sichtbar. Klicke hier um dich zu registrieren.]
    Support über PN
    =
    AKTIV

Lesezeichen

Berechtigungen

  • Neue Themen erstellen: Nein
  • Themen beantworten: Nein
  • Anhänge hochladen: Nein
  • Beiträge bearbeiten: Nein
  •  

1 2 3 4 5 6 7 8 9 10 11 12 13 14 15 16 17 18 19 20 21 22 23 24 25 26 27 28 29 30 31 32 33 34 35 36 37 38 39 40 41 42 43 44 45 46 47 48 49 50 51 52 53 54 55 56 57 58 59 60 61 62 63 64 65 66 67 68 69 70 71 72 73 74 75 76 77 78 79 80 81 82 83 84 85 86 87 88 89 90 91 92 93 94 95 96 97 98 99 100 101 102 103 104 105 106 107 108 109 110 111 112 113 114 115 116 117 118 119 120 121 122 123 124 125 126 127 128 129 130 131 132 133 134 135 136 137 138 139 140 141 142 143 144 145 146 147 148 149 150 151 152 153 154 155 156 157 158