Ergebnis 1 bis 1 von 1

Thema: Show By Rock!! [Jap-Dub][Ger-Sub][720p][HDTV] - MGS

Dieser Thread wurde noch nicht bewertet. Bewerte ihn doch, wenn er dir gefällt!
  1. #1
    Uploader Avatar von Filbo11
    Registriert seit
    Jan 2015
    Beiträge
    931
    Punkte
    17.281
    Errungenschaften:
    TomodachisErste Gruppe1 Jahr registriertCreated Album picturesTagger First Class

    Show By Rock!! [Jap-Dub][Ger-Sub][720p][HDTV] - MGS

    Show by Rock!!
    (ショウ・バイ・ロック!!)




    Handlung

    Die Schülerin Cyan liebt es, Gitarre zu spielen und Musik zu machen, ist aber zu schüchtern, um sich für den Musikklub zu bewerben. Als sie sich gerade dazu durchgerungen hatte, wird sie plötzlich durch ihr Handy in eine andere Welt gesaugt, MIDICITY. Dort wird aus ihr nicht nur ein Cat-Girl im Gothic-Lolita-Outfit, sondern sie findet sich auch in einem Kampf gegen dunkle Monster wieder. In diesem entdeckt sie neue Talente in sich und wird anschließend auch gleich von Maple Arisugawa für dessen Musikagentur gecastet. Dort trifft sie auf Chuchu, Rabbit-Girl und Einserschülerin, das Internet-Geek Dog-Girl Retoree und das Alien Sheep-Girl Moa. Gemeinsamen formen sie die Band "Plasmagica", doch sind es neben Monstern auch noch andere Bands, die sich ihrem Erfolg in den Weg stellen.


    Format: mp4
    Dauer: ca. 24 min
    Größe: ca. 244 MB (gesamt: 2,86 GB)
    Episodenanzahl: 12/12
    Sprache: Japanisch
    Untertitel: Deutsch
    Group: [MGS]
    Hoster: Uploaded.net & Share-Online.biz
    kein PW


    Screenshots & MediaInfo

    Spoiler
    [Links sind nur für registrierte und aktivierte Nutzer sichtbar. Klicke hier um dich zu registrieren.]

    Code:
    General
    Complete name               : [MGS]_-_Show_By_Rock_-_Episode_01_-_[6A81E4ED].mp4
    Format                      : MPEG-4
    Format profile              : Base Media
    Codec ID                    : isom
    File size                   : 245 MiB
    Duration                    : 24mn 0s
    Overall bit rate mode       : Variable
    Overall bit rate            : 1 426 Kbps
    Encoded date                : UTC 2015-04-27 19:31:02
    Tagged date                 : UTC 2015-04-27 19:31:02
    
    Video
    ID                          : 1
    Format                      : AVC
    Format/Info                 : Advanced Video Codec
    Format profile              : [email protected]
    Format settings, CABAC      : Yes
    Format settings, ReFrames   : 3 frames
    Format settings, GOP        : N=1
    Codec ID                    : avc1
    Codec ID/Info               : Advanced Video Coding
    Duration                    : 23mn 59s
    Bit rate                    : 1 296 Kbps
    Maximum bit rate            : 4 620 Kbps
    Width                       : 1 280 pixels
    Height                      : 720 pixels
    Display aspect ratio        : 16:9
    Frame rate mode             : Constant
    Frame rate                  : 23.976 fps
    Color space                 : YUV
    Chroma subsampling          : 4:2:0
    Bit depth                   : 8 bits
    Scan type                   : Progressive
    Bits/(Pixel*Frame)          : 0.059
    Stream size                 : 222 MiB (91%)
    Writing library             : x264 core 68 r1183M f21daff
    Encoding settings           : cabac=1 / ref=3 / deblock=1:1:1 / analyse=0x3:0x113 / me=umh / subme=7 / psy_rd=1.0:0.0 / mixed_ref=1 / me_range=16 / chroma_me=1 / trellis=1 / 8x8dct=1 / cqm=0 / deadzone=21,11 / chroma_qp_offset=-4 / threads=6 / nr=0 / decimate=1 / mbaff=0 / bframes=3 / b_pyramid=0 / b_adapt=2 / b_bias=0 / direct=3 / wpredb=1 / keyint=250 / keyint_min=25 / scenecut=40 / rc=2pass / bitrate=1296 / ratetol=1.0 / qcomp=0.60 / qpmin=10 / qpmax=51 / qpstep=4 / cplxblur=20.0 / qblur=0.5 / ip_ratio=1.40 / pb_ratio=1.30 / aq=0
    Encoded date                : UTC 2015-04-27 19:08:50
    Tagged date                 : UTC 2015-04-27 19:31:07
    
    Audio
    ID                          : 2
    Format                      : AAC
    Format/Info                 : Advanced Audio Codec
    Format profile              : HE-AAC / LC
    Codec ID                    : 40
    Duration                    : 24mn 0s
    Bit rate mode               : Variable
    Bit rate                    : 128 Kbps
    Maximum bit rate            : 147 Kbps
    Channel(s)                  : 2 channels
    Channel positions           : Front: L R
    Sampling rate               : 48.0 KHz / 24.0 KHz
    Compression mode            : Lossy
    Stream size                 : 21.9 MiB (9%)
    Encoded date                : UTC 2015-04-27 19:31:02
    Tagged date                 : UTC 2015-04-27 19:31:07


    Alle Mirrors untereinander kompatibel
    Folgen einzeln ladbar


    Download
    Geschützter Bereich - Bedanke dich beim Poster, um den Bereich sehen zu können
    Hier erfährst Du wie Du Dich bedanken kannst oder werde jetzt Premium Mitglied ab einer Spende von 5€ und erhalte sofortigen Zugriff auf den Downloadbereich!

    Geändert von Filbo11 (12. April 2016 um 10:13 Uhr)

    [Links sind nur für registrierte und aktivierte Nutzer sichtbar. Klicke hier um dich zu registrieren.]

    Ich wäre allen sehr dankbar, die mir gravierende Fehler in meinen Releases per PN melden

  2. 13 Benutzer sagen Danke:

    Dalurin (13. January 2016),doublegf (19. September 2015),Drachengott (28. September 2015),midnighter (22. September 2015),Nanashi (4. April 2016),nickssystem (15. September 2015),Noire16 (4. November 2016),prinzvegeta (7. October 2015),realmadridcf (20. November 2016),Ronae (15. September 2015),sangheilie (12. December 2015),Taiho (23. December 2015),Tzi (16. September 2015)

Stichworte

Lesezeichen

Berechtigungen

  • Neue Themen erstellen: Nein
  • Themen beantworten: Nein
  • Anhänge hochladen: Nein
  • Beiträge bearbeiten: Nein
  •  

1 2 3 4 5 6 7 8 9 10 11 12 13 14 15 16 17 18 19 20 21 22 23 24 25 26 27 28 29 30 31 32 33 34 35 36 37 38 39 40 41 42 43 44 45 46 47 48 49 50 51 52 53 54 55 56 57 58 59 60 61 62 63 64 65 66 67 68 69 70 71 72 73 74 75 76 77 78 79 80 81 82 83 84 85 86 87 88 89 90 91 92 93 94 95 96 97 98 99 100 101 102 103 104 105 106 107 108 109 110 111 112 113 114 115 116 117 118 119 120 121 122 123 124 125 126 127 128 129 130 131 132 133 134 135 136 137 138 139 140 141 142 143 144 145 146 147 148 149 150 151 152 153 154 155 156 157 158