Ergebnis 1 bis 1 von 1

Thema: Spice and Wolf [Jap-Dub][Ger-Sub][1080p-10Bit][Bluray] - Lazy-Subs

Dieser Thread wurde noch nicht bewertet. Bewerte ihn doch, wenn er dir gefällt!
  1. #1
    United we Stand Avatar von 00Ryuji00
    Registriert seit
    Oct 2012
    Beiträge
    3.896
    Punkte
    99.519
    Errungenschaften:
    TomodachisGang LeaderHikikomoriTagger Amateur50000 Erfahrungspunkte

    Spice and Wolf [Jap-Dub][Ger-Sub][1080p-10Bit][Bluray] - Lazy-Subs


    Ookami to Koushinryou
    Spice and Wolf






    Kurzbeschreibung:
    Zitat Zitat von AniSearch.com
    Craft Lawrence ist ein umherziehender Händler, der davon lebt, seine Waren in immer neuen Städten zu verkaufen. Eines Tages kommt er mal wieder in die Stadt Pasroe, wo zurzeit ein Erntefest stattfindet. Die Einwohner feiern dieses Fest jedes Jahr, um der Erntegöttin Horo zu danken. Doch in dieser Nacht findet Lawrence in seinem Wagen ein Mädchen mit Wolfsohren, das sich später als eben jene Wolfsgöttin Horo entpuppt. Sie will sich Lawrence anschließen, um zurück in ihre alte Heimat zu gelangen, doch der scheint von dieser Idee nicht sonderlich begeistert zu sein...


    Spieldauer: 24min
    Genre: Abenteuer
    Nebengenres: Abenteuer, Drama, Fantasy, Romanze
    Jahr: 2008
    Sprache: Japanisch
    Untertitel: Deutsch
    Größe pro Folge: ~449 MiB
    Episodenanzahl: 12 /12
    Format: MP4
    Auflösung: 1080p (16:9)
    Videocodec: x264 (AVC)
    Audiocodec: AAC
    Releasegruppe: Lazy-Subs
    Hoster: Share-Online, Uploaded


    MediaInfo
    Code:
    
    Format                                   : MPEG-4
    Format profile                           : Base Media
    Codec ID                                 : isom
    File size                                : 449 MiB
    Duration                                 : 23mn 50s
    Overall bit rate mode                    : Variable
    Overall bit rate                         : 2 636 Kbps
    Encoded date                             : UTC 2012-02-21 19:15:18
    Tagged date                              : UTC 2012-02-21 19:15:18
    
    Video
    ID                                       : 1
    Format                                   : AVC
    Format/Info                              : Advanced Video Codec
    Format profile                           : High [email protected]
    Format settings, CABAC                   : Yes
    Format settings, ReFrames                : 8 frames
    Codec ID                                 : avc1
    Codec ID/Info                            : Advanced Video Coding
    Duration                                 : 23mn 50s
    Bit rate                                 : 2 468 Kbps
    Maximum bit rate                         : 18.6 Mbps
    Width                                    : 1 920 pixels
    Height                                   : 1 080 pixels
    Display aspect ratio                     : 16:9
    Frame rate mode                          : Constant
    Frame rate                               : 23.976 fps
    Color space                              : YUV
    Chroma subsampling                       : 4:2:0
    Bit depth                                : 10 bits
    Scan type                                : Progressive
    Bits/(Pixel*Frame)                       : 0.050
    Stream size                              : 421 MiB (94%)
    Writing library                          : x264 core 119 r2106 07efeb4
    Encoding settings                        : cabac=1 / ref=8 / deblock=1:1:1 / analyse=0x3:0x133 / me=umh / subme=9 / psy=1 / psy_rd=0.60:0.00 / mixed_ref=1 / me_range=24 / chroma_me=1 / trellis=2 / 8x8dct=1 / cqm=0 / deadzone=21,11 / fast_pskip=0 / chroma_qp_offset=-2 / threads=6 / sliced_threads=0 / nr=0 / decimate=0 / interlaced=0 / bluray_compat=0 / constrained_intra=0 / bframes=6 / b_pyramid=2 / b_adapt=2 / b_bias=0 / direct=3 / weightb=1 / open_gop=0 / weightp=2 / keyint=240 / keyint_min=23 / scenecut=40 / intra_refresh=0 / rc=crf / mbtree=0 / crf=18.5 / qcomp=1.00 / qpmin=0 / qpmax=81 / qpstep=4 / ip_ratio=1.40 / pb_ratio=1.30 / aq=1:0.60
    Encoded date                             : UTC 2012-02-18 13:42:16
    Tagged date                              : UTC 2012-02-21 19:15:46
    
    Audio
    ID                                       : 2
    Format                                   : AAC
    Format/Info                              : Advanced Audio Codec
    Format profile                           : LC
    Codec ID                                 : 40
    Duration                                 : 23mn 50s
    Bit rate mode                            : Variable
    Bit rate                                 : 164 Kbps
    Maximum bit rate                         : 206 Kbps
    Channel(s)                               : 2 channels
    Channel positions                        : Front: L R
    Sampling rate                            : 48.0 KHz
    Compression mode                         : Lossy
    Stream size                              : 28.0 MiB (6%)
    Language                                 : Japanese
    Encoded date                             : UTC 2012-02-21 19:15:45
    Tagged date                              : UTC 2012-02-21 19:15:46
    
    





    Geschützter Bereich - Bedanke dich beim Poster, um den Bereich sehen zu können
    Hier erfährst Du wie Du Dich bedanken kannst oder werde jetzt Premium Mitglied ab einer Spende von 5€ und erhalte sofortigen Zugriff auf den Downloadbereich!


    [Links sind nur für registrierte und aktivierte Nutzer sichtbar. Klicke hier um dich zu registrieren.]
    !!!Alle Anliegen bezüglich Uploads werden nur mit direktem Threadlink zum Angebot bearbeitet!!!

    Re-Uploadanfragen nur per PN - Ihr könnt mir auch Listen schicken

    Re-Uploads erfolgen meist innerhalb 24h, kann aber auch bis zu 7 Tage dauern

    [Links sind nur für registrierte und aktivierte Nutzer sichtbar. Klicke hier um dich zu registrieren.] | [Links sind nur für registrierte und aktivierte Nutzer sichtbar. Klicke hier um dich zu registrieren.] | >[Links sind nur für registrierte und aktivierte Nutzer sichtbar. Klicke hier um dich zu registrieren.]<
    [Links sind nur für registrierte und aktivierte Nutzer sichtbar. Klicke hier um dich zu registrieren.]

  2. 15 Benutzer sagen Danke:

    Antipott (28. March 2016),Asuka Langley (30. March 2016),Bloodyair (28. March 2016),entryx (3. June 2016),Facebreaker (22. March 2016),Hedeki (12. April 2016),iCapuz (15. November 2016),kaiste (7. April 2016),krasserGaul (22. March 2016),Masaru (25. March 2016),Nandemonai (17. November 2016),Pazu (1. November 2016),Skygearz (17. May 2016),Terrorhasii.x3 (28. July 2016),Zap (4. November 2016)

Lesezeichen

Berechtigungen

  • Neue Themen erstellen: Nein
  • Themen beantworten: Nein
  • Anhänge hochladen: Nein
  • Beiträge bearbeiten: Nein
  •  

1 2 3 4 5 6 7 8 9 10 11 12 13 14 15 16 17 18 19 20 21 22 23 24 25 26 27 28 29 30 31 32 33 34 35 36 37 38 39 40 41 42 43 44 45 46 47 48 49 50 51 52 53 54 55 56 57 58 59 60 61 62 63 64 65 66 67 68 69 70 71 72 73 74 75 76 77 78 79 80 81 82 83 84 85 86 87 88 89 90 91 92 93 94 95 96 97 98 99 100 101 102 103 104 105 106 107 108 109 110 111 112 113 114 115 116 117 118 119 120 121 122 123 124 125 126 127 128 129 130 131 132 133 134 135 136 137 138 139 140 141 142 143 144 145 146 147 148 149 150 151 152 153 154 155 156 157 158