Ergebnis 1 bis 1 von 1

Thema: Sugar Sugar Rune [Jap-Dub][Ger-Sub][480p][DVDRip]

Dieser Thread wurde noch nicht bewertet. Bewerte ihn doch, wenn er dir gefällt!
  1. #1
    United we Stand Avatar von 00Ryuji00
    Registriert seit
    Oct 2012
    Beiträge
    3.902
    Punkte
    99.938
    Errungenschaften:
    TomodachisGang LeaderHikikomoriTagger Amateur50000 Erfahrungspunkte

    Sugar Sugar Rune [Jap-Dub][Ger-Sub][480p][DVDRip]

    Sugar Sugar Rune
    シュガシュガルーン
    SSR



    Kurzbeschreibung:
    Zwei kleine Hexen, Chocolat und Vanilla, werden in die Menschenwelt geschickt. Dort sollen sie einen Wettkampf austragen, der entscheiden soll, wer von den beiden die nächste Königin der Hexenwelt wird. Hierfür müssen sie dafür sorgen, dass die Jungen aus ihrer Schule sie mögen, damit sie deren Herzen in Kristalle verwandeln können. Hört sich einfach an, oder? Aber durch Chocolats ausfallende Persönlichkeit und Vanillas Schüchternheit ist es schon eine Herausforderung einen Tag zu überstehen, ohne dass etwas schief geht.

    Man nehme etwas sinnlose Magie, einen Haufen verrückter Charaktere, einen geheimnisvollen Oberschüler namens Pierre und man hat "Sugar Sugar Rune"!
    Sprache: Japanisch
    Untertitel: Deutsch
    Spieldauer: ~ 24min
    Größe: ~ 245MB
    Episodenanzahl: 51/51
    Format: .mp4
    Auflösung: 480p (640x480, 4:3)
    Codec: x264, AAC
    Gruppe: MGS
    Hoster: Uploaded, Share-Online

    Datei-Info.:
    Spoiler
    Code:
    Format                                   : MPEG-4
    Format profile                           : Base Media
    Codec ID                                 : isom
    File size                                : 245 MiB
    Duration                                 : 24mn 15s
    Overall bit rate mode                    : Variable
    Overall bit rate                         : 1 413 Kbps
    Encoded date                             : UTC 2015-01-31 14:36:33
    Tagged date                              : UTC 2015-01-31 14:36:33
    
    Video
    ID                                       : 1
    Format                                   : AVC
    Format/Info                              : Advanced Video Codec
    Format profile                           : [email protected]
    Format settings, CABAC                   : Yes
    Format settings, ReFrames                : 3 frames
    Codec ID                                 : avc1
    Codec ID/Info                            : Advanced Video Coding
    Duration                                 : 24mn 14s
    Bit rate                                 : 1 283 Kbps
    Maximum bit rate                         : 6 261 Kbps
    Width                                    : 640 pixels
    Height                                   : 480 pixels
    Display aspect ratio                     : 4:3
    Frame rate mode                          : Constant
    Frame rate                               : 23.952 fps
    Color space                              : YUV
    Chroma subsampling                       : 4:2:0
    Bit depth                                : 8 bits
    Scan type                                : Progressive
    Bits/(Pixel*Frame)                       : 0.174
    Stream size                              : 223 MiB (91%)
    Writing library                          : x264 core 68 r1183M f21daff
    Encoding settings                        : cabac=1 / ref=3 / deblock=1:1:1 / analyse=0x3:0x113 / me=umh / subme=7 / psy_rd=1.0:0.0 / mixed_ref=1 / me_range=16 / chroma_me=1 / trellis=1 / 8x8dct=1 / cqm=0 / deadzone=21,11 / chroma_qp_offset=-4 / threads=6 / nr=0 / decimate=1 / mbaff=0 / bframes=3 / b_pyramid=0 / b_adapt=2 / b_bias=0 / direct=3 / wpredb=1 / keyint=250 / keyint_min=25 / scenecut=40 / rc=2pass / bitrate=1283 / ratetol=1.0 / qcomp=0.60 / qpmin=10 / qpmax=51 / qpstep=4 / cplxblur=20.0 / qblur=0.5 / ip_ratio=1.40 / pb_ratio=1.30 / aq=0
    Encoded date                             : UTC 2015-01-31 14:17:27
    Tagged date                              : UTC 2015-01-31 14:36:39
    
    Audio
    ID                                       : 2
    Format                                   : AAC
    Format/Info                              : Advanced Audio Codec
    Format profile                           : HE-AAC / LC
    Codec ID                                 : 40
    Duration                                 : 24mn 15s
    Bit rate mode                            : Variable
    Bit rate                                 : 128 Kbps
    Maximum bit rate                         : 155 Kbps
    Channel count                            : 2 channels
    Channel positions                        : Front: L R
    Sampling rate                            : 48.0 KHz / 24.0 KHz
    Compression mode                         : Lossy
    Stream size                              : 22.2 MiB (9%)
    Encoded date                             : UTC 2015-01-31 14:36:34
    Tagged date                              : UTC 2015-01-31 14:36:39
    


    Geschützter Bereich - Bedanke dich beim Poster, um den Bereich sehen zu können
    Hier erfährst Du wie Du Dich bedanken kannst oder werde jetzt Premium Mitglied ab einer Spende von 5€ und erhalte sofortigen Zugriff auf den Downloadbereich!
    Geändert von 00Ryuji00 (14. April 2016 um 05:09 Uhr)
    !!!Alle Anliegen bezüglich Uploads werden nur mit direktem Threadlink zum Angebot bearbeitet!!!

    Re-Uploadanfragen nur per PN - Ihr könnt mir auch Listen schicken

    Re-Uploads erfolgen meist innerhalb 24h, kann aber auch bis zu 7 Tage dauern

    [Links sind nur für registrierte und aktivierte Nutzer sichtbar. Klicke hier um dich zu registrieren.] | [Links sind nur für registrierte und aktivierte Nutzer sichtbar. Klicke hier um dich zu registrieren.] | >[Links sind nur für registrierte und aktivierte Nutzer sichtbar. Klicke hier um dich zu registrieren.]<
    [Links sind nur für registrierte und aktivierte Nutzer sichtbar. Klicke hier um dich zu registrieren.]

  2. 7 Benutzer sagen Danke:

    Akio (29. November 2015),Bloodywaffe (1. February 2016),gunnar1 (27. June 2016),Melijal (29. June 2015),midnighter (23. June 2015),prinzvegeta (3. July 2015),rGunti (2. December 2016)

Lesezeichen

Berechtigungen

  • Neue Themen erstellen: Nein
  • Themen beantworten: Nein
  • Anhänge hochladen: Nein
  • Beiträge bearbeiten: Nein
  •  

1 2 3 4 5 6 7 8 9 10 11 12 13 14 15 16 17 18 19 20 21 22 23 24 25 26 27 28 29 30 31 32 33 34 35 36 37 38 39 40 41 42 43 44 45 46 47 48 49 50 51 52 53 54 55 56 57 58 59 60 61 62 63 64 65 66 67 68 69 70 71 72 73 74 75 76 77 78 79 80 81 82 83 84 85 86 87 88 89 90 91 92 93 94 95 96 97 98 99 100 101 102 103 104 105 106 107 108 109 110 111 112 113 114 115 116 117 118 119 120 121 122 123 124 125 126 127 128 129 130 131 132 133 134 135 136 137 138 139 140 141 142 143 144 145 146 147 148 149 150 151 152 153 154 155 156 157 158