Ergebnis 1 bis 2 von 2

Thema: Suki-tte Ii na yo. + Special + OVA [Jap-Dub][Ger-Sub][720p/1080p-8Bit/10-Bit][HDTV/BluRay]-Blueberry-Subs

Dieser Thread wurde noch nicht bewertet. Bewerte ihn doch, wenn er dir gefällt!
  1. #1
    United we Stand Avatar von 00Ryuji00
    Registriert seit
    Oct 2012
    Beiträge
    3.902
    Punkte
    99.938
    Errungenschaften:
    TomodachisGang LeaderHikikomoriTagger Amateur50000 Erfahrungspunkte

    Suki-tte Ii na yo. + Special + OVA [Jap-Dub][Ger-Sub][720p/1080p-8Bit/10-Bit][HDTV/BluRay]-Blueberry-Subs


    Suki-tte Ii na yo.
    好きっていいなよ.
    Say, "I Love You"
    Say, "I Love You".
    Sukitte Iinayo






    Kurzbeschreibung:
    Zitat Zitat von AniSearch.com
    Mei Tachibana hatte in ihren bisherigen 16 Jahren weder einen festen Freund noch irgendwelche anderen Freunde. Eines Tages verletzt sie aufgrund eines Missverständnisses den beliebtesten Jungen der Schule, Yamato Kurosawa, der daraufhin Gefühle für sie entwickelt und ohne ihr Einverständnis entscheidet, dass sie befreundet sind. Wäre das nicht schon genug, beschützt er sie dann sogar noch mit einem Kuss vor einem Stalker ...


    Spieldauer: 24min
    Genre: Romanze, Drama
    Nebengenres: Drama, Komödie, Romanze, Weiblich
    Jahr: 2012
    Sprache: Japanisch
    Untertitel: Deutsch
    Größe pro Folge: ~206 MiB ~451 MiB ~7.59 MiB ~128 MiB
    Episodenanzahl: 13/13 + 10/10 + 1/1
    Format: MP4
    Auflösung: 720p (16:9), 1080p (16:9), 576p (16:9)
    Videocodec: x264 (AVC)
    Audiocodec: AAC
    Releasegruppe: Blueberry-Subs
    Hoster: Share-Online, Uploaded

    Note: Folgen 1, 2, 10, 12, 13
    der 1080p Version sind in 10-Bit



    MediaInfo
    720p HDTV
    Code:
    
    Format                                   : MPEG-4
    Format profile                           : Base Media
    Codec ID                                 : isom
    File size                                : 206 MiB
    Duration                                 : 24mn 0s
    Overall bit rate mode                    : Variable
    Overall bit rate                         : 1 199 Kbps
    Encoded date                             : UTC 2012-10-22 12:22:06
    Tagged date                              : UTC 2012-10-22 12:22:06
    
    Video
    ID                                       : 1
    Format                                   : AVC
    Format/Info                              : Advanced Video Codec
    Format profile                           : [email protected]
    Format settings, CABAC                   : Yes
    Format settings, ReFrames                : 8 frames
    Codec ID                                 : avc1
    Codec ID/Info                            : Advanced Video Coding
    Duration                                 : 24mn 0s
    Bit rate                                 : 1 053 Kbps
    Maximum bit rate                         : 3 263 Kbps
    Width                                    : 1 280 pixels
    Height                                   : 720 pixels
    Display aspect ratio                     : 16:9
    Frame rate mode                          : Constant
    Frame rate                               : 23.976 fps
    Color space                              : YUV
    Chroma subsampling                       : 4:2:0
    Bit depth                                : 8 bits
    Scan type                                : Progressive
    Bits/(Pixel*Frame)                       : 0.048
    Stream size                              : 181 MiB (88%)
    Writing library                          : x264 core 119 r2106 07efeb4
    Encoding settings                        : cabac=1 / ref=8 / deblock=1:-1:-1 / analyse=0x3:0x133 / me=umh / subme=7 / psy=1 / psy_rd=1.00:0.10 / mixed_ref=1 / me_range=16 / chroma_me=1 / trellis=2 / 8x8dct=1 / cqm=0 / deadzone=21,11 / fast_pskip=0 / chroma_qp_offset=-3 / threads=3 / sliced_threads=0 / nr=0 / decimate=1 / interlaced=0 / bluray_compat=0 / constrained_intra=0 / bframes=3 / b_pyramid=2 / b_adapt=2 / b_bias=0 / direct=3 / weightb=1 / open_gop=0 / weightp=2 / keyint=250 / keyint_min=23 / scenecut=40 / intra_refresh=0 / rc_lookahead=50 / rc=crf / mbtree=1 / crf=21.0 / qcomp=0.60 / qpmin=0 / qpmax=69 / qpstep=4 / ip_ratio=1.40 / aq=1:1.00
    Encoded date                             : UTC 2012-10-22 12:22:06
    Tagged date                              : UTC 2012-10-22 12:22:12
    
    Audio
    ID                                       : 2
    Format                                   : AAC
    Format/Info                              : Advanced Audio Codec
    Format profile                           : LC
    Codec ID                                 : 40
    Duration                                 : 24mn 0s
    Bit rate mode                            : Variable
    Bit rate                                 : 144 Kbps
    Maximum bit rate                         : 172 Kbps
    Channel(s)                               : 2 channels
    Channel positions                        : Front: L R
    Sampling rate                            : 48.0 KHz
    Compression mode                         : Lossy
    Stream size                              : 24.4 MiB (12%)
    Encoded date                             : UTC 2012-10-22 12:22:11
    Tagged date                              : UTC 2012-10-22 12:22:12
    
    


    1080p BluRay
    Code:
    
    Format                                   : MPEG-4
    Format profile                           : Base Media
    Codec ID                                 : isom
    File size                                : 451 MiB
    Duration                                 : 23mn 40s
    Overall bit rate mode                    : Variable
    Overall bit rate                         : 2 667 Kbps
    Encoded date                             : UTC 2015-09-11 13:31:47
    Tagged date                              : UTC 2015-09-11 13:31:47
    
    Video
    ID                                       : 1
    Format                                   : AVC
    Format/Info                              : Advanced Video Codec
    Format profile                           : [email protected]
    Format settings, CABAC                   : Yes
    Format settings, ReFrames                : 8 frames
    Codec ID                                 : avc1
    Codec ID/Info                            : Advanced Video Coding
    Duration                                 : 23mn 40s
    Bit rate                                 : 2 520 Kbps
    Maximum bit rate                         : 6 534 Kbps
    Width                                    : 1 920 pixels
    Height                                   : 1 080 pixels
    Display aspect ratio                     : 16:9
    Frame rate mode                          : Constant
    Frame rate                               : 23.976 fps
    Color space                              : YUV
    Chroma subsampling                       : 4:2:0
    Bit depth                                : 8 bits
    Scan type                                : Progressive
    Bits/(Pixel*Frame)                       : 0.051
    Stream size                              : 427 MiB (94%)
    Writing library                          : x264 core 119 r2106 07efeb4
    Encoding settings                        : cabac=1 / ref=8 / deblock=1:-1:-1 / analyse=0x3:0x133 / me=umh / subme=7 / psy=1 / psy_rd=1.00:0.10 / mixed_ref=1 / me_range=16 / chroma_me=1 / trellis=2 / 8x8dct=1 / cqm=0 / deadzone=21,11 / fast_pskip=0 / chroma_qp_offset=-3 / threads=6 / sliced_threads=0 / nr=0 / decimate=1 / interlaced=0 / bluray_compat=0 / constrained_intra=0 / bframes=3 / b_pyramid=2 / b_adapt=2 / b_bias=0 / direct=3 / weightb=1 / open_gop=0 / weightp=2 / keyint=250 / keyint_min=23 / scenecut=40 / intra_refresh=0 / rc_lookahead=50 / rc=crf / mbtree=1 / crf=21.0 / qcomp=0.60 / qpmin=0 / qpmax=69 / qpstep=4 / ip_ratio=1.40 / aq=1:1.00
    Encoded date                             : UTC 2015-09-11 13:31:47
    Tagged date                              : UTC 2015-09-11 13:32:01
    
    Audio
    ID                                       : 2
    Format                                   : AAC
    Format/Info                              : Advanced Audio Codec
    Format profile                           : LC
    Codec ID                                 : 40
    Duration                                 : 23mn 40s
    Bit rate mode                            : Variable
    Bit rate                                 : 144 Kbps
    Maximum bit rate                         : 178 Kbps
    Channel(s)                               : 2 channels
    Channel positions                        : Front: L R
    Sampling rate                            : 48.0 KHz
    Compression mode                         : Lossy
    Stream size                              : 24.2 MiB (5%)
    Encoded date                             : UTC 2015-09-11 13:32:00
    Tagged date                              : UTC 2015-09-11 13:32:01
    
    


    Special
    Code:
    
    Format                                   : MPEG-4
    Format profile                           : Base Media
    Codec ID                                 : isom
    File size                                : 7.59 MiB
    Duration                                 : 47s 130ms
    Overall bit rate mode                    : Variable
    Overall bit rate                         : 1 350 Kbps
    Encoded date                             : UTC 2015-08-08 07:59:02
    Tagged date                              : UTC 2015-08-08 07:59:02
    
    Video
    ID                                       : 1
    Format                                   : AVC
    Format/Info                              : Advanced Video Codec
    Format profile                           : [email protected]
    Format settings, CABAC                   : Yes
    Format settings, ReFrames                : 8 frames
    Codec ID                                 : avc1
    Codec ID/Info                            : Advanced Video Coding
    Duration                                 : 47s 130ms
    Bit rate                                 : 1 236 Kbps
    Maximum bit rate                         : 4 293 Kbps
    Width                                    : 1 920 pixels
    Height                                   : 1 080 pixels
    Display aspect ratio                     : 16:9
    Frame rate mode                          : Constant
    Frame rate                               : 23.976 fps
    Color space                              : YUV
    Chroma subsampling                       : 4:2:0
    Bit depth                                : 8 bits
    Scan type                                : Progressive
    Bits/(Pixel*Frame)                       : 0.025
    Stream size                              : 6.94 MiB (91%)
    Writing library                          : x264 core 119 r2106 07efeb4
    Encoding settings                        : cabac=1 / ref=8 / deblock=1:-1:-1 / analyse=0x3:0x133 / me=umh / subme=7 / psy=1 / psy_rd=1.00:0.10 / mixed_ref=1 / me_range=16 / chroma_me=1 / trellis=2 / 8x8dct=1 / cqm=0 / deadzone=21,11 / fast_pskip=0 / chroma_qp_offset=-3 / threads=6 / sliced_threads=0 / nr=0 / decimate=1 / interlaced=0 / bluray_compat=0 / constrained_intra=0 / bframes=3 / b_pyramid=2 / b_adapt=2 / b_bias=0 / direct=3 / weightb=1 / open_gop=0 / weightp=2 / keyint=250 / keyint_min=23 / scenecut=40 / intra_refresh=0 / rc_lookahead=50 / rc=crf / mbtree=1 / crf=21.0 / qcomp=0.60 / qpmin=0 / qpmax=69 / qpstep=4 / ip_ratio=1.40 / aq=1:1.00
    Encoded date                             : UTC 2015-08-08 07:59:02
    Tagged date                              : UTC 2015-08-08 07:59:02
    
    Audio
    ID                                       : 2
    Format                                   : AAC
    Format/Info                              : Advanced Audio Codec
    Format profile                           : LC
    Codec ID                                 : 40
    Duration                                 : 47s 60ms
    Bit rate mode                            : Variable
    Bit rate                                 : 111 Kbps
    Maximum bit rate                         : 153 Kbps
    Channel(s)                               : 2 channels
    Channel positions                        : Front: L R
    Sampling rate                            : 48.0 KHz
    Compression mode                         : Lossy
    Stream size                              : 636 KiB (8%)
    Encoded date                             : UTC 2015-08-08 07:59:02
    Tagged date                              : UTC 2015-08-08 07:59:02
    
    


    OVA
    Code:
    
    Format                                   : MPEG-4
    Format profile                           : Base Media
    Codec ID                                 : isom
    File size                                : 128 MiB
    Duration                                 : 22mn 55s
    Overall bit rate mode                    : Variable
    Overall bit rate                         : 781 Kbps
    Encoded date                             : UTC 2015-08-24 19:32:47
    Tagged date                              : UTC 2015-08-24 19:32:47
    
    Video
    ID                                       : 1
    Format                                   : AVC
    Format/Info                              : Advanced Video Codec
    Format profile                           : [email protected]
    Format settings, CABAC                   : Yes
    Format settings, ReFrames                : 8 frames
    Codec ID                                 : avc1
    Codec ID/Info                            : Advanced Video Coding
    Duration                                 : 22mn 55s
    Bit rate                                 : 627 Kbps
    Maximum bit rate                         : 3 300 Kbps
    Width                                    : 1 024 pixels
    Height                                   : 576 pixels
    Display aspect ratio                     : 16:9
    Frame rate mode                          : Constant
    Frame rate                               : 23.976 fps
    Color space                              : YUV
    Chroma subsampling                       : 4:2:0
    Bit depth                                : 8 bits
    Scan type                                : Progressive
    Bits/(Pixel*Frame)                       : 0.044
    Stream size                              : 103 MiB (80%)
    Writing library                          : x264 core 119 r2106 07efeb4
    Encoding settings                        : cabac=1 / ref=8 / deblock=1:-1:-1 / analyse=0x3:0x133 / me=umh / subme=7 / psy=1 / psy_rd=1.00:0.10 / mixed_ref=1 / me_range=16 / chroma_me=1 / trellis=2 / 8x8dct=1 / cqm=0 / deadzone=21,11 / fast_pskip=0 / chroma_qp_offset=-3 / threads=6 / sliced_threads=0 / nr=0 / decimate=1 / interlaced=0 / bluray_compat=0 / constrained_intra=0 / bframes=3 / b_pyramid=2 / b_adapt=2 / b_bias=0 / direct=3 / weightb=1 / open_gop=0 / weightp=2 / keyint=250 / keyint_min=23 / scenecut=40 / intra_refresh=0 / rc_lookahead=50 / rc=crf / mbtree=1 / crf=21.0 / qcomp=0.60 / qpmin=0 / qpmax=69 / qpstep=4 / ip_ratio=1.40 / aq=1:1.00
    Encoded date                             : UTC 2015-08-24 19:32:47
    Tagged date                              : UTC 2015-08-24 19:32:49
    
    Audio
    ID                                       : 2
    Format                                   : AAC
    Format/Info                              : Advanced Audio Codec
    Format profile                           : LC
    Codec ID                                 : 40
    Duration                                 : 22mn 55s
    Bit rate mode                            : Variable
    Bit rate                                 : 150 Kbps
    Maximum bit rate                         : 174 Kbps
    Channel(s)                               : 2 channels
    Channel positions                        : Front: L R
    Sampling rate                            : 48.0 KHz
    Compression mode                         : Lossy
    Stream size                              : 24.6 MiB (19%)
    Encoded date                             : UTC 2015-08-24 19:32:49
    Tagged date                              : UTC 2015-08-24 19:32:49
    
    







    Geschützter Bereich - Bedanke dich beim Poster, um den Bereich sehen zu können
    Hier erfährst Du wie Du Dich bedanken kannst oder werde jetzt Premium Mitglied ab einer Spende von 5€ und erhalte sofortigen Zugriff auf den Downloadbereich!


    [Links sind nur für registrierte und aktivierte Nutzer sichtbar. Klicke hier um dich zu registrieren.]
    !!!Alle Anliegen bezüglich Uploads werden nur mit direktem Threadlink zum Angebot bearbeitet!!!

    Re-Uploadanfragen nur per PN - Ihr könnt mir auch Listen schicken

    Re-Uploads erfolgen meist innerhalb 24h, kann aber auch bis zu 7 Tage dauern

    [Links sind nur für registrierte und aktivierte Nutzer sichtbar. Klicke hier um dich zu registrieren.] | [Links sind nur für registrierte und aktivierte Nutzer sichtbar. Klicke hier um dich zu registrieren.] | >[Links sind nur für registrierte und aktivierte Nutzer sichtbar. Klicke hier um dich zu registrieren.]<
    [Links sind nur für registrierte und aktivierte Nutzer sichtbar. Klicke hier um dich zu registrieren.]

  2. 31 Benutzer sagen Danke:

    Aizen-Sama (5. December 2016),Akulti (13. January 2016),Bloodyair (30. December 2015),Conopas (30. December 2015),Corntendo (8. February 2016),Dova88 (30. December 2015),exterminus (30. December 2015),GammaWar (30. December 2015),Geisterhaendler (31. December 2015),Ghostraven (30. December 2015),GiftGasBaer (22. February 2016),Hiro (30. December 2015),Hyro (29. September 2016),IRazziCz (28. June 2016),Latyr (1. January 2016),Loki92 (3. January 2016),Magicmanx (9. January 2016),Magikarp (1. December 2016),meyer (30. December 2015),midnighter (31. December 2015),Mr.Shit (30. December 2015),Pazu (19. September 2016),prinzvegeta (4. January 2016),Ronae (30. December 2015),Sildurias (1. January 2016),SnowCat (14. August 2016),ssj3shad (18. February 2016),Terrorhasii.x3 (2. August 2016),Tzi (30. December 2015),undertaker0951 (28. July 2016),Vstrike (24. March 2016)

  3. #2
    United we Stand Avatar von 00Ryuji00
    Registriert seit
    Oct 2012
    Beiträge
    3.902
    Punkte
    99.938
    Errungenschaften:
    TomodachisGang LeaderHikikomoriTagger Amateur50000 Erfahrungspunkte

    AW: Suki-tte Ii na yo. + Special + OVA [Jap-Dub][Ger-Sub][720p/1080p-8Bit/10-Bit][HDTV/BluRay]-Blueberry-Subs

    Update: Dateien auf Wunsch wieder online.
    !!!Alle Anliegen bezüglich Uploads werden nur mit direktem Threadlink zum Angebot bearbeitet!!!

    Re-Uploadanfragen nur per PN - Ihr könnt mir auch Listen schicken

    Re-Uploads erfolgen meist innerhalb 24h, kann aber auch bis zu 7 Tage dauern

    [Links sind nur für registrierte und aktivierte Nutzer sichtbar. Klicke hier um dich zu registrieren.] | [Links sind nur für registrierte und aktivierte Nutzer sichtbar. Klicke hier um dich zu registrieren.] | >[Links sind nur für registrierte und aktivierte Nutzer sichtbar. Klicke hier um dich zu registrieren.]<
    [Links sind nur für registrierte und aktivierte Nutzer sichtbar. Klicke hier um dich zu registrieren.]

  4. 1 Benutzer sagt Danke:

    Terrorhasii.x3 (2. August 2016)

Lesezeichen

Berechtigungen

  • Neue Themen erstellen: Nein
  • Themen beantworten: Nein
  • Anhänge hochladen: Nein
  • Beiträge bearbeiten: Nein
  •  

1 2 3 4 5 6 7 8 9 10 11 12 13 14 15 16 17 18 19 20 21 22 23 24 25 26 27 28 29 30 31 32 33 34 35 36 37 38 39 40 41 42 43 44 45 46 47 48 49 50 51 52 53 54 55 56 57 58 59 60 61 62 63 64 65 66 67 68 69 70 71 72 73 74 75 76 77 78 79 80 81 82 83 84 85 86 87 88 89 90 91 92 93 94 95 96 97 98 99 100 101 102 103 104 105 106 107 108 109 110 111 112 113 114 115 116 117 118 119 120 121 122 123 124 125 126 127 128 129 130 131 132 133 134 135 136 137 138 139 140 141 142 143 144 145 146 147 148 149 150 151 152 153 154 155 156 157 158