Ergebnis 1 bis 1 von 1

Thema: Suzuka [Ger Sub][Jap Dub][480p][DVDRip]

Dieser Thread wurde noch nicht bewertet. Bewerte ihn doch, wenn er dir gefällt!
  1. #1
    Erfahrener Otaku Avatar von Kajiro
    Registriert seit
    Mar 2014
    Ort
    Irgendwo im Nirgendwo
    Beiträge
    213
    Punkte
    10.403
    Errungenschaften:
    10000 ErfahrungspunkteHikikomori

    Suzuka [Ger Sub][Jap Dub][480p][DVDRip]


    Suzuka






    Kurzbeschreibung:
    Akitsuki Yamato zieht vom Land auf die Stadt zu seiner Tante in eine eigene Wohnung, um sich und sein Leben zu verändern. Als er ankommt, erfährt er, dass seine Tante ein Badehaus besitzt, wo er auch prompt mitarbeiten "darf". Bei seiner Ankunft geht er an einem Sportplatz vorbei, auf welchem ein Mädchen Hochsprung trainiert. Er verliebt sich auf den ersten Blick in die unbekannte Schönheit. In seiner neuen Wohnung angekommen, bemerkt er verblüfft, dass eben diese unbekannte Schönheit seine Nachbarin ist...


    Sprache: Japanisch
    Untertitel: Deutsch
    Folgen: 26/26
    Größe: 190-255MB
    Format: AVI
    Auflösung: 640x480
    Genre: Romanze
    Sub Gruppe: [Taiyo]


    Datei Info:
    Spoiler
    Video
    ID : 0
    Format : MPEG-4 Visual
    Format profile : Advanced [email protected]
    Format settings, BVOP : 2
    Format settings, QPel : No
    Format settings, GMC : No warppoints
    Format settings, Matrix : Default (H.263)
    Muxing mode : Packed bitstream
    Codec ID : XVID
    Codec ID/Hint : XviD
    Duration : 23mn 39s
    Bit rate : 1 100 Kbps
    Width : 640 pixels
    Height : 480 pixels
    Display aspect ratio : 4:3
    Frame rate : 23.976 fps
    Color space : YUV
    Chroma subsampling : 4:2:0
    Bit depth : 8 bits
    Scan type : Progressive
    Compression mode : Lossy
    Bits/(Pixel*Frame) : 0.149
    Stream size : 186 MiB (89%)
    Writing library : XviD 1.2.1 (UTC 2008-12-04)

    Audio
    ID : 1
    Format : MPEG Audio
    Format version : Version 1
    Format profile : Layer 3
    Mode : Joint stereo
    Mode extension : MS Stereo
    Codec ID : 55
    Codec ID/Hint : MP3
    Duration : 23mn 39s
    Bit rate mode : Constant
    Bit rate : 128 Kbps
    Channel(s) : 2 channels
    Sampling rate : 48.0 KHz
    Compression mode : Lossy
    Stream size : 21.7 MiB (10%)
    Alignment : Aligned on interleaves
    Interleave, duration : 42 ms (1.00 video frame)
    Interleave, preload duration : 504 ms






    Geschützter Bereich - Bedanke dich beim Poster, um den Bereich sehen zu können
    Hier erfährst Du wie Du Dich bedanken kannst oder werde jetzt Premium Mitglied ab einer Spende von 5€ und erhalte sofortigen Zugriff auf den Downloadbereich!

    Inaktiver Uploader!

    Alle Re-Upload-Anfragen öffentlich im [Links sind nur für registrierte und aktivierte Nutzer sichtbar. Klicke hier um dich zu registrieren.] posten!

  2. 26 Benutzer sagen Danke:

    Akio (31. October 2015),alecander (29. August 2014),bjoegi (2. February 2015),Bloodrevenge (22. March 2016),Bloodywaffe (17. December 2015),Chronles (27. September 2014),classius (5. February 2015),danielbern (5. January 2015),f1r3n_inactive (7. September 2014),Filbo11 (1. March 2015),intelatominside (13. January 2016),kenshin057 (9. February 2015),Lyres (9. September 2014),midnighter (9. November 2014),passi (19. August 2015),Pedi (27. July 2015),prinzvegeta (17. November 2015),RapidKill (10. January 2015),Roysento (8. August 2014),RX333 (7. August 2015),Sandy7580 (3. April 2016),sharline (24. March 2015),Skully_88 (29. April 2015),SnowCat (9. August 2014),videoseven (7. August 2014)

Lesezeichen

Berechtigungen

  • Neue Themen erstellen: Nein
  • Themen beantworten: Nein
  • Anhänge hochladen: Nein
  • Beiträge bearbeiten: Nein
  •  

1 2 3 4 5 6 7 8 9 10 11 12 13 14 15 16 17 18 19 20 21 22 23 24 25 26 27 28 29 30 31 32 33 34 35 36 37 38 39 40 41 42 43 44 45 46 47 48 49 50 51 52 53 54 55 56 57 58 59 60 61 62 63 64 65 66 67 68 69 70 71 72 73 74 75 76 77 78 79 80 81 82 83 84 85 86 87 88 89 90 91 92 93 94 95 96 97 98 99 100 101 102 103 104 105 106 107 108 109 110 111 112 113 114 115 116 117 118 119 120 121 122 123 124 125 126 127 128 129 130 131 132 133 134 135 136 137 138 139 140 141 142 143 144 145 146 147 148 149 150 151 152 153 154 155 156 157 158