Ergebnis 1 bis 3 von 3

Thema: Taiho Shichau zo: You're Under Arrest (S1+S2+S3) [Laufend][Jap-Dub][Ger-Sub][480p][DVD]- subs4u

Dieser Thread wurde noch nicht bewertet. Bewerte ihn doch, wenn er dir gefällt!
  1. #1
    Kami-sama Avatar von galudo
    Registriert seit
    Mar 2015
    Beiträge
    1.370
    Punkte
    25.957
    Errungenschaften:
    TomodachisTagger ProfiHyperaktivSenpaiGang Leader

    Taiho Shichau zo: You're Under Arrest (S1+S2+S3) [Laufend][Jap-Dub][Ger-Sub][480p][DVD]- subs4u

    Taiho Shichau zo: You're Under Arrest (1996)
    You're Under Arrest!
    +
    Taiho Shichau zo: Second Season
    You're Under Arrest: Fast & Furious
    +
    Taiho Shichau zo: Full Throttle
    You’re Under Arrest: Full Throttle



    Kurzbeschreibung
    Staffel 1
    You’re Under Arrest! erzählt von den Abenteuern des Powerduos Natsumi und Miyuki und die der restlichen Belegschaft der Bokuto Polizeistation. Sind die Polizisten selbst schon durch ihre diversen skurrilen Charaktereigenschaften gekennzeichnet, werden sie in ihrem beruflichen Alltag mit nicht weniger abgedrehten Personen konfrontiert und müssen sich in den verschiedensten Situationen beweisen, von rasanten Verfolgungsjagden, bis hin zu selbsternannten maskierten Hütern der Gerechtigkeit.

    Staffel 2
    Natsumi und Miyuki sind zurück und werfen sich abermals in den Kampf um Recht und Ordnung im Bokuto Polizeidistrikt. Zusätzliche Unterstützung erhält die Bokuto Polizeistation nun durch Saori, die ihre Ausbildung zur Polizistin inzwischen erfolgreich abgeschlossen hat. So stellt sich die Belegschaft neuen abwechslungsreichen Herausforderungen und muss nun auch vermehrt mit privaten Problemen zurechtkommen.

    Staffel 3
    Kobayakawa Miyuki, frisch aus der Forensik Ausbildung in den Vereinigten Staaten und Tsujimto Natsumi, die gerade ihre Ausbildung zur JSDF (Japanese Self-Defense Force) gemacht hat, kehren in die lang erwartete 3. Staffel der sehr beliebten Serie zurück. Dieses Mal nimmt das Duo wieder ihren Dienst bei Bokuto Police Department auf und bekämpft das Verbrechen mit ihrem Verstand und Muskeln, doch leider passieren hier und da mal ein paar Missgeschicke.
    Format: MP4
    Sprache: Japanisch
    Untertitel: Deutsch
    Genre: Action, Comedy, Shounen, Slapstick
    Größe bei Staffel 1: ~ 250 MB pro Folge | Gesamtgröße: 13,51 GB
    Größe bei Staffel 2: ~ 180 MB pro Folge | Gesamtgröße: 4,34 GB
    Größe bei Staffel 3: ~ 120 MB pro Folge | Gesamtgröße: 0,64 GB
    Dauer: ~ 23-25 Minuten
    Jahr: 1996-2008
    Video: 480p bei S1&S2 | 704x396p bei S3
    Source: DVD
    Subgroup / Releasegroup: subs4u

    Hoster: Share-Online | Uploaded
    Passwort: siehe unten


    Datei-Info
    Spoiler
    Staffel 1
    Code:
    General
    Format                         : MPEG-4
    Format profile                 : Base Media
    Codec ID                       : isom
    File size                      : 297 MiB
    Duration                       : 28mn 37s
    Overall bit rate mode          : Variable
    Overall bit rate               : 1 451 Kbps
    
    Video
    ID                             : 1
    Format                         : AVC
    Format/Info                    : Advanced Video Codec
    Format profile                 : [email protected]
    Format settings, CABAC         : Yes
    Format settings, ReFrames      : 16 frames
    Codec ID                       : avc1
    Codec ID/Info                  : Advanced Video Coding
    Duration                       : 28mn 37s
    Bit rate                       : 1 400 Kbps
    Maximum bit rate               : 6 454 Kbps
    Width                          : 640 pixels
    Height                         : 480 pixels
    Display aspect ratio           : 4:3
    Frame rate mode                : Constant
    Frame rate                     : 23.976 fps
    Color space                    : YUV
    Chroma subsampling             : 4:2:0
    Bit depth                      : 8 bits
    Scan type                      : Progressive
    Bits/(Pixel*Frame)             : 0.190
    Stream size                    : 287 MiB (96%)
    Writing library                : x264 core 122 r2183 c522ad1
    Encoding settings              : cabac=1 / ref=16 / deblock=1:1:1 / analyse=0x3:0x133 / me=umh / subme=9 / psy=1 / psy_rd=0.40:0.00 / mixed_ref=1 / me_range=16 / chroma_me=1 / trellis=2 / 8x8dct=1 / cqm=0 / deadzone=21,11 / fast_pskip=1 / chroma_qp_offset=-2 / threads=9 / sliced_threads=0 / nr=0 / decimate=1 / interlaced=0 / bluray_compat=0 / constrained_intra=0 / bframes=5 / b_pyramid=2 / b_adapt=2 / b_bias=0 / direct=3 / weightb=1 / open_gop=0 / weightp=2 / keyint=240 / keyint_min=23 / scenecut=40 / intra_refresh=0 / rc_lookahead=60 / rc=2pass / mbtree=1 / bitrate=1400 / ratetol=1.0 / qcomp=0.60 / qpmin=10 / qpmax=51 / qpstep=4 / cplxblur=20.0 / qblur=0.5 / vbv_maxrate=31250 / vbv_bufsize=31250 / nal_hrd=none / ip_ratio=1.40 / aq=1:0.60
    
    Audio
    ID                             : 2
    Format                         : AAC
    Format/Info                    : Advanced Audio Codec
    Format profile                 : HE-AAC / LC
    Codec ID                       : 40
    Duration                       : 28mn 37s
    Bit rate mode                  : Variable
    Bit rate                       : 48.0 Kbps
    Maximum bit rate               : 81.6 Kbps
    Channel(s)                     : 2 channels
    Channel positions              : Front: L R
    Sampling rate                  : 48.0 KHz / 24.0 KHz
    Compression mode               : Lossy
    Stream size                    : 9.83 MiB (3%)

    Staffel 2
    Code:
    General
    Format                         : MPEG-4
    Format profile                 : Base Media
    Codec ID                       : isom
    File size                      : 198 MiB
    Duration                       : 24mn 54s
    Overall bit rate mode          : Variable
    Overall bit rate               : 1 114 Kbps
    
    Video
    ID                             : 1
    Format                         : AVC
    Format/Info                    : Advanced Video Codec
    Format profile                 : [email protected]
    Format settings, CABAC         : Yes
    Format settings, ReFrames      : 8 frames
    Codec ID                       : avc1
    Codec ID/Info                  : Advanced Video Coding
    Duration                       : 24mn 54s
    Bit rate                       : 1 017 Kbps
    Maximum bit rate               : 3 773 Kbps
    Width                          : 640 pixels
    Height                         : 480 pixels
    Display aspect ratio           : 4:3
    Frame rate mode                : Constant
    Frame rate                     : 23.976 fps
    Color space                    : YUV
    Chroma subsampling             : 4:2:0
    Bit depth                      : 8 bits
    Scan type                      : Progressive
    Bits/(Pixel*Frame)             : 0.138
    Stream size                    : 181 MiB (91%)
    Title                          : 264#trackID=1:[email protected]
    Writing library                : x264 core 133 r2334 a3ac64b
    Encoding settings              : cabac=1 / ref=8 / deblock=1:0:0 / analyse=0x3:0x133 / me=umh / subme=9 / psy=1 / psy_rd=1.00:0.00 / mixed_ref=1 / me_range=16 / chroma_me=1 / trellis=2 / 8x8dct=1 / cqm=0 / deadzone=21,11 / fast_pskip=1 / chroma_qp_offset=-2 / threads=9 / lookahead_threads=1 / sliced_threads=0 / nr=0 / decimate=1 / interlaced=0 / bluray_compat=0 / constrained_intra=0 / bframes=3 / b_pyramid=2 / b_adapt=2 / b_bias=0 / direct=3 / weightb=1 / open_gop=0 / weightp=2 / keyint=240 / keyint_min=23 / scenecut=40 / intra_refresh=0 / rc_lookahead=60 / rc=crf / mbtree=1 / crf=18.5 / qcomp=0.60 / qpmin=10 / qpmax=51 / qpstep=4 / vbv_maxrate=31250 / vbv_bufsize=31250 / crf_max=0.0 / nal_hrd=none / ip_ratio=1.40 / aq=1:1.00
    
    Audio
    ID                             : 2
    Format                         : AAC
    Format/Info                    : Advanced Audio Codec
    Format profile                 : HE-AAC / LC
    Codec ID                       : 40
    Duration                       : 24mn 54s
    Bit rate mode                  : Variable
    Bit rate                       : 94.0 Kbps
    Maximum bit rate               : 110 Kbps
    Channel(s)                     : 2 channels
    Channel positions              : Front: L R
    Sampling rate                  : 48.0 KHz / 24.0 KHz
    Compression mode               : Lossy
    Stream size                    : 16.7 MiB (8%)

    Staffel 3
    Code:
    General
    Format                         : MPEG-4
    Format profile                 : Base Media
    Codec ID                       : isom
    File size                      : 114 MiB
    Duration                       : 24mn 4s
    Overall bit rate mode          : Variable
    Overall bit rate               : 662 Kbps
    
    Video
    ID                             : 1
    Format                         : AVC
    Format/Info                    : Advanced Video Codec
    Format profile                 : [email protected]
    Format settings, CABAC         : Yes
    Format settings, ReFrames      : 8 frames
    Codec ID                       : avc1
    Codec ID/Info                  : Advanced Video Coding
    Duration                       : 24mn 4s
    Bit rate                       : 563 Kbps
    Maximum bit rate               : 3 629 Kbps
    Width                          : 720 pixels
    Height                         : 400 pixels
    Display aspect ratio           : 16:9
    Frame rate mode                : Constant
    Frame rate                     : 23.976 fps
    Color space                    : YUV
    Chroma subsampling             : 4:2:0
    Bit depth                      : 8 bits
    Scan type                      : Progressive
    Bits/(Pixel*Frame)             : 0.082
    Stream size                    : 97.0 MiB (85%)
    Writing library                : x264 core 146 r2538 121396c
    Encoding settings              : cabac=1 / ref=8 / deblock=1:0:0 / analyse=0x3:0x133 / me=umh / subme=9 / psy=1 / psy_rd=1.00:0.00 / mixed_ref=1 / me_range=16 / chroma_me=1 / trellis=2 / 8x8dct=1 / cqm=0 / deadzone=21,11 / fast_pskip=1 / chroma_qp_offset=-2 / threads=9 / lookahead_threads=1 / sliced_threads=0 / nr=0 / decimate=1 / interlaced=0 / bluray_compat=0 / constrained_intra=0 / bframes=3 / b_pyramid=2 / b_adapt=2 / b_bias=0 / direct=3 / weightb=1 / open_gop=0 / weightp=2 / keyint=240 / keyint_min=23 / scenecut=40 / intra_refresh=0 / rc_lookahead=60 / rc=crf / mbtree=1 / crf=18.5 / qcomp=0.60 / qpmin=10 / qpmax=51 / qpstep=4 / vbv_maxrate=31250 / vbv_bufsize=31250 / crf_max=0.0 / nal_hrd=none / filler=0 / ip_ratio=1.40 / aq=1:1.00
    
    Audio
    ID                             : 2
    Format                         : AAC
    Format/Info                    : Advanced Audio Codec
    Format profile                 : HE-AAC / LC
    Codec ID                       : 40
    Duration                       : 24mn 4s
    Bit rate mode                  : Variable
    Bit rate                       : 96.0 Kbps
    Maximum bit rate               : 116 Kbps
    Channel(s)                     : 2 channels
    Channel positions              : Front: L R
    Sampling rate                  : 48.0 KHz / 24.0 KHz
    Compression mode               : Lossy
    Stream size                    : 16.5 MiB (14%)



    Folgen S1 52 / 52 online
    Folgen S2 26 / 26 online
    Folgen S3 12 / 23 online
    Folgen einzeln ladbar



    || Download & Passwort ||


    Geschützter Bereich - Bedanke dich beim Poster, um den Bereich sehen zu können
    Hier erfährst Du wie Du Dich bedanken kannst oder werde jetzt Premium Mitglied ab einer Spende von 5€ und erhalte sofortigen Zugriff auf den Downloadbereich!
    Geändert von galudo (12. October 2016 um 18:19 Uhr) Grund: Folgenupdate
    SUPPORT UND REUP ANFRAGEN NUR >> [Links sind nur für registrierte und aktivierte Nutzer sichtbar. Klicke hier um dich zu registrieren.] <<
    Bitte IMMER den Thread-Link mitschicken.

  2. 20 Benutzer sagen Danke:

    Antipott (6. October 2015),bayerle92 (10. October 2015),Benjiro (4. October 2015),classius (2. October 2015),Cooky1988 (4. October 2015),dionys (28. October 2015),Drachengott (17. October 2015),exterminus (4. January 2016),heikobaer (9. January 2016),Hi im Shini (3. November 2015),kei (18. November 2015),Lombrero (6. October 2015),Miles360 (2. October 2015),Nanatzusaya (18. September 2016),old nick (15. October 2016),Over (2. October 2015),prinzvegeta (4. October 2015),realmadridcf (5. January 2016),Vice (1. October 2015),xZodiac (7. October 2015)

  3. #2
    Kami-sama Avatar von galudo
    Registriert seit
    Mar 2015
    Beiträge
    1.370
    Punkte
    25.957
    Errungenschaften:
    TomodachisTagger ProfiHyperaktivSenpaiGang Leader

    AW: Taiho Shichauzo (S1+S2+S3) [Jap-Dub][Ger-Sub][480p][DVD]- subs4u

    Episode 5 und 6 Online von Staffel 3
    SUPPORT UND REUP ANFRAGEN NUR >> [Links sind nur für registrierte und aktivierte Nutzer sichtbar. Klicke hier um dich zu registrieren.] <<
    Bitte IMMER den Thread-Link mitschicken.

  4. #3
    Kami-sama Avatar von galudo
    Registriert seit
    Mar 2015
    Beiträge
    1.370
    Punkte
    25.957
    Errungenschaften:
    TomodachisTagger ProfiHyperaktivSenpaiGang Leader

    AW: Taiho Shichauzo (S1+S2+S3) [Laufend][Jap-Dub][Ger-Sub][480p][DVD]- subs4u

    Update: Dateien auf Wunsch wieder Online
    Episoden 7 bis 12 von Staffel 3 sind neu dabei
    SUPPORT UND REUP ANFRAGEN NUR >> [Links sind nur für registrierte und aktivierte Nutzer sichtbar. Klicke hier um dich zu registrieren.] <<
    Bitte IMMER den Thread-Link mitschicken.

Stichworte

Lesezeichen

Berechtigungen

  • Neue Themen erstellen: Nein
  • Themen beantworten: Nein
  • Anhänge hochladen: Nein
  • Beiträge bearbeiten: Nein
  •  

1 2 3 4 5 6 7 8 9 10 11 12 13 14 15 16 17 18 19 20 21 22 23 24 25 26 27 28 29 30 31 32 33 34 35 36 37 38 39 40 41 42 43 44 45 46 47 48 49 50 51 52 53 54 55 56 57 58 59 60 61 62 63 64 65 66 67 68 69 70 71 72 73 74 75 76 77 78 79 80 81 82 83 84 85 86 87 88 89 90 91 92 93 94 95 96 97 98 99 100 101 102 103 104 105 106 107 108 109 110 111 112 113 114 115 116 117 118 119 120 121 122 123 124 125 126 127 128 129 130 131 132 133 134 135 136 137 138 139 140 141 142 143 144 145 146 147 148 149 150 151 152 153 154 155 156 157 158