Ergebnis 1 bis 1 von 1

Thema: Tales of Zestiria: Doushi no Yoake [Jap-Dub][Ger-Sub][AC-3|x264|1080p|10bit][Bluray] - C-Subs

Dieser Thread wurde noch nicht bewertet. Bewerte ihn doch, wenn er dir gefällt!
  1. #1
    Erfahrener Otaku Avatar von DjRayleigh
    Registriert seit
    Jul 2015
    Beiträge
    195
    Punkte
    2.962
    Errungenschaften:
    1000 ErfahrungspunkteHyperaktivErste GruppeTomodachisSenpai

    Tales of Zestiria: Doushi no Yoake [Jap-Dub][Ger-Sub][AC-3|x264|1080p|10bit][Bluray] - C-Subs


    Tales of Zestiria: Doushi no Yoake






    Tales of Zestiria:Doushi no Yoake Kurzbeschreibung:
    Zitat Zitat von AniSearch.com

    Ein Anime-Special zum gleichnamigen Spiel.
    Sorey lebt als Mensch unter den Seraphimen, die er dank seines hohen Spirit Levels sehen kann. Mit seinem Seraphim-Freund Mikleo erkundet er alte Ruinen in der Gegend. In den Ruinen trifft er auf die bewusstlose Alisha, welche er mit sich zurück zum Seraphimen-Dorf bringt. Warum war Alisha auch in den Ruinen und was sagen die Dorfbewohner zu der Fremden?


    Spieldauer: 44min
    Genre: Abenteuer
    Nebengenres: Abenteuer, Action, Fantasy, Komödie
    Jahr: 2014
    Sprache: Japanisch
    Untertitel: Deutsch
    Größe pro Folge: ~7.00 GiB
    Episodenanzahl: 1 /1
    Format: MKV
    Auflösung: 1080p (16:9)
    Videocodec: x264 (AVC)
    Audiocodec: AC-3
    Releasegruppe: C-Subs
    Hoster: Uploaded

    MediaInfo
    Code:
    
    Format                                   : Matroska
    Format version                           : Version 4 / Version 2
    File size                                : 7.00 GiB
    Duration                                 : 44mn 19s
    Overall bit rate                         : 22.6 Mbps
    Encoded date                             : UTC 2015-02-27 10:46:35
    Writing application                      : mkvmerge v7.5.0 ('Glass Culture') 64bit built on Jan  4 2015 16:48:44
    Writing library                          : libebml v1.3.1 + libmatroska v1.4.2
    Attachements                             : Cicero Sans Negrita.ttf
    _STATISTICS_WRITING_APP                  : mkvmerge v7.5.0 ('Glass Culture') 64bit built on Jan  4 2015 16:48:44
    _STATISTICS_WRITING_DATE_UTC             : 2015-02-27 10:46:35
    _STATISTICS_TAGS                         : BPS DURATION NUMBER_OF_FRAMES NUMBER_OF_BYTES
    DURATION                                 : 00:43:32.130000000
    NUMBER_OF_FRAMES                         : 492
    NUMBER_OF_BYTES                          : 28836
    
    Video
    ID                                       : 1
    Format                                   : AVC
    Format/Info                              : Advanced Video Codec
    Format profile                           : High [email protected]
    Format settings, CABAC                   : Yes
    Format settings, ReFrames                : 16 frames
    Codec ID                                 : V_MPEG4/ISO/AVC
    Duration                                 : 44mn 18s
    Bit rate                                 : 21.5 Mbps
    Width                                    : 1 920 pixels
    Height                                   : 1 080 pixels
    Display aspect ratio                     : 16:9
    Frame rate mode                          : Constant
    Frame rate                               : 23.976 fps
    Color space                              : YUV
    Chroma subsampling                       : 4:2:0
    Bit depth                                : 10 bits
    Scan type                                : Progressive
    Bits/(Pixel*Frame)                       : 0.433
    Stream size                              : 6.66 GiB (95%)
    Writing library                          : x264 core 142 r2409kMod d6b4e63
    Encoding settings                        : cabac=1 / ref=16 / deblock=1:-2:-2 / analyse=0x3:0x133 / me=umh / subme=10 / psy=1 / fade_compensate=0.00 / psy_rd=0.85:0.25 / mixed_ref=1 / me_range=32 / chroma_me=1 / trellis=2 / 8x8dct=1 / cqm=0 / deadzone=21,11 / fast_pskip=1 / chroma_qp_offset=-4 / threads=6 / lookahead_threads=1 / sliced_threads=0 / nr=0 / decimate=0 / interlaced=0 / bluray_compat=0 / constrained_intra=0 / fgo=0 / bframes=16 / b_pyramid=2 / b_adapt=2 / b_bias=0 / direct=3 / weightb=1 / open_gop=0 / weightp=2 / keyint=240 / keyint_min=23 / scenecut=40 / intra_refresh=0 / rc_lookahead=120 / rc=crf / mbtree=1 / crf=17.5000 / qcomp=0.70 / qpmin=0 / qpmax=81 / qpstep=4 / ip_ratio=1.40 / aq=3:1.25
    Language                                 : English
    Default                                  : Yes
    Forced                                   : No
    _STATISTICS_WRITING_APP                  : mkvmerge v7.5.0 ('Glass Culture') 64bit built on Jan  4 2015 16:48:44
    _STATISTICS_WRITING_DATE_UTC             : 2015-02-27 10:46:35
    _STATISTICS_TAGS                         : BPS DURATION NUMBER_OF_FRAMES NUMBER_OF_BYTES
    DURATION                                 : 00:44:18.990000000
    NUMBER_OF_FRAMES                         : 63752
    NUMBER_OF_BYTES                          : 7301579821
    
    Audio
    ID                                       : 2
    Format                                   : AC-3
    Format/Info                              : Audio Coding 3
    Mode extension                           : CM (complete main)
    Format settings, Endianness              : Big
    Codec ID                                 : A_AC3
    Duration                                 : 44mn 19s
    Bit rate mode                            : Constant
    Bit rate                                 : 640 Kbps
    Channel(s)                               : 6 channels
    Channel positions                        : Front: L C R, Side: L R, LFE
    Sampling rate                            : 48.0 KHz
    Compression mode                         : Lossy
    Stream size                              : 203 MiB (3%)
    Default                                  : Yes
    Forced                                   : No
    
    Text
    ID                                       : 3
    Format                                   : ASS
    Codec ID                                 : S_TEXT/ASS
    Codec ID/Info                            : Advanced Sub Station Alpha
    Compression mode                         : Lossless
    Default                                  : Yes
    Forced                                   : No
    
    





    Geschützter Bereich - Bedanke dich beim Poster, um den Bereich sehen zu können
    Hier erfährst Du wie Du Dich bedanken kannst oder werde jetzt Premium Mitglied ab einer Spende von 5€ und erhalte sofortigen Zugriff auf den Downloadbereich!


    [Links sind nur für registrierte und aktivierte Nutzer sichtbar. Klicke hier um dich zu registrieren.]
    Geändert von DjRayleigh (18. April 2016 um 20:52 Uhr) Grund: *Korrigieren

    [Links sind nur für registrierte und aktivierte Nutzer sichtbar. Klicke hier um dich zu registrieren.]
    Support über PN
    =
    AKTIV

  2. 21 Benutzer sagen Danke:

    Artheanos (25. February 2016),Bloodrevenge (14. August 2016),BlutMoll (25. February 2016),Cande (25. February 2016),ChristianLake (29. February 2016),Demichi (6. May 2016),Fatestaynight (7. November 2016),kiirei15242 (6. March 2016),Kira7 (2. October 2016),KrachbumAlex (26. February 2016),midnighter (21. March 2016),passi (26. February 2016),Ronae (25. February 2016),Skully_88 (27. February 2016),Smasher25 (25. February 2016),Sonicslash (12. June 2016),swagrid (25. February 2016),syman8989 (5. July 2016),Tekay (11. August 2016),Tschu23 (26. February 2016),xhellsingx (27. June 2016)

Lesezeichen

Berechtigungen

  • Neue Themen erstellen: Nein
  • Themen beantworten: Nein
  • Anhänge hochladen: Nein
  • Beiträge bearbeiten: Nein
  •  

1 2 3 4 5 6 7 8 9 10 11 12 13 14 15 16 17 18 19 20 21 22 23 24 25 26 27 28 29 30 31 32 33 34 35 36 37 38 39 40 41 42 43 44 45 46 47 48 49 50 51 52 53 54 55 56 57 58 59 60 61 62 63 64 65 66 67 68 69 70 71 72 73 74 75 76 77 78 79 80 81 82 83 84 85 86 87 88 89 90 91 92 93 94 95 96 97 98 99 100 101 102 103 104 105 106 107 108 109 110 111 112 113 114 115 116 117 118 119 120 121 122 123 124 125 126 127 128 129 130 131 132 133 134 135 136 137 138 139 140 141 142 143 144 145 146 147 148 149 150 151 152 153 154 155 156 157 158