Ergebnis 1 bis 5 von 5

Thema: Tanaka-kun wa Itsumo Kedaruge [Laufend][Jap-Dub][Ger-Sub][720p][HDTV] - LS

Dieser Thread wurde durchschnittlich mit 4 Sternen bewertet, wobei 1 Stern die schlechteste und 5 Sterne die beste Bewertung ist. Es haben insgesamt 1 Mitglieder eine Bewertung abgegeben.

  1. #1
    Kami-sama Avatar von galudo
    Registriert seit
    Mar 2015
    Beiträge
    1.370
    Punkte
    25.967
    Errungenschaften:
    TomodachisTagger ProfiHyperaktivSenpaiGang Leader

    Tanaka-kun wa Itsumo Kedaruge [Laufend][Jap-Dub][Ger-Sub][720p][HDTV] - LS

    Tanaka-kun wa Itsumo Kedaruge
    田中くんはいつもけだるげ
    Tanaka-kun is Always Listless



    Kurzbeschreibung
    Seufzend, gestützt auf seinen Ellbogen, verträumte Augen ‒ das ist Tanaka-kun; ein motivationsloser und stets entspannter Typ, der sich mit seiner Art nicht nur Freunde macht. Besonders der ruhige Oota scheint Tanaka-kun nicht in Ruhe lassen zu können.
    Format: MP4
    Sprache: Japanisch
    Untertitel: Deutsch (HardSub)
    Genre: Alltagsleben, Comedy, Schule
    Größe: ~ 290 MB pro Folge | Gesamtgröße: 1,35 GB
    Dauer: ~ 24 Minuten
    Jahr: 2016
    Video: 720p
    Source: HDTV
    Subgroup / Releasegroup: Lunatic Studio

    Hoster: Share-Online | Uploaded
    Passwort: siehe unten
    Onlinestatus:


    Datei-Info
    Spoiler
    Code:
    General
    Complete name                  : [L-S] Tanaka-kun wa Itsumo Kedaruge - 01 (1280x720 h264 AAC) [A07A3A5B].mp4
    Format                         : MPEG-4
    Format profile                 : Base Media
    Codec ID                       : isom
    File size                      : 287 MiB
    Duration                       : 23mn 45s
    Overall bit rate mode          : Variable
    Overall bit rate               : 1 691 Kbps
    Encoded date                   : UTC 2016-04-14 18:20:49
    Tagged date                    : UTC 2016-04-14 18:20:49
    
    Video
    ID                             : 1
    Format                         : AVC
    Format/Info                    : Advanced Video Codec
    Format profile                 : [email protected]
    Format settings, CABAC         : Yes
    Format settings, ReFrames      : 4 frames
    Codec ID                       : avc1
    Codec ID/Info                  : Advanced Video Coding
    Duration                       : 23mn 45s
    Bit rate mode                  : Variable
    Bit rate                       : 1 498 Kbps
    Maximum bit rate               : 40.0 Mbps
    Width                          : 1 280 pixels
    Height                         : 720 pixels
    Display aspect ratio           : 16:9
    Frame rate mode                : Constant
    Frame rate                     : 23.976 fps
    Color space                    : YUV
    Chroma subsampling             : 4:2:0
    Bit depth                      : 8 bits
    Scan type                      : Progressive
    Bits/(Pixel*Frame)             : 0.068
    Stream size                    : 255 MiB (89%)
    Title                          : Lunatic-Studio
    Encoded date                   : UTC 2016-04-14 18:20:49
    Tagged date                    : UTC 2016-04-14 18:20:58
    
    Audio
    ID                             : 2
    Format                         : AAC
    Format/Info                    : Advanced Audio Codec
    Format profile                 : LC
    Codec ID                       : 67
    Duration                       : 23mn 45s
    Bit rate mode                  : Variable
    Bit rate                       : 192 Kbps
    Maximum bit rate               : 196 Kbps
    Channel(s)                     : 2 channels
    Channel positions              : Front: L R
    Sampling rate                  : 48.0 KHz
    Compression mode               : Lossy
    Stream size                    : 32.1 MiB (11%)
    Encoded date                   : UTC 2016-04-14 18:20:56
    Tagged date                    : UTC 2016-04-14 18:20:58


    Folgen 06 / 12 online
    Folgen einzeln ladbar



    || Download & Passwort ||


    Geschützter Bereich - Bedanke dich beim Poster, um den Bereich sehen zu können
    Hier erfährst Du wie Du Dich bedanken kannst oder werde jetzt Premium Mitglied ab einer Spende von 5€ und erhalte sofortigen Zugriff auf den Downloadbereich!

    Geändert von galudo (12. October 2016 um 18:25 Uhr) Grund: Folgenupdate
    SUPPORT UND REUP ANFRAGEN NUR >> [Links sind nur für registrierte und aktivierte Nutzer sichtbar. Klicke hier um dich zu registrieren.] <<
    Bitte IMMER den Thread-Link mitschicken.

  2. 5 Benutzer sagen Danke:

    Asuka Langley (25. April 2016),KainIV (16. November 2016),LawMugen (25. June 2016),Nanatzusaya (18. May 2016),Zap (2. May 2016)

  3. #2
    Kami-sama Avatar von galudo
    Registriert seit
    Mar 2015
    Beiträge
    1.370
    Punkte
    25.967
    Errungenschaften:
    TomodachisTagger ProfiHyperaktivSenpaiGang Leader

    AW: Tanaka-kun wa Itsumo Kedaruge [Laufend][Jap-Dub][Ger-Sub][720p][HDTV] - LS

    Episode 02 & 03 Online
    SUPPORT UND REUP ANFRAGEN NUR >> [Links sind nur für registrierte und aktivierte Nutzer sichtbar. Klicke hier um dich zu registrieren.] <<
    Bitte IMMER den Thread-Link mitschicken.

  4. 1 Benutzer sagt Danke:

    Asuka Langley (2. May 2016)

  5. #3
    Kami-sama Avatar von galudo
    Registriert seit
    Mar 2015
    Beiträge
    1.370
    Punkte
    25.967
    Errungenschaften:
    TomodachisTagger ProfiHyperaktivSenpaiGang Leader

    AW: Tanaka-kun wa Itsumo Kedaruge [Laufend][Jap-Dub][Ger-Sub][720p][HDTV] - LS

    Episode 04 Online
    SUPPORT UND REUP ANFRAGEN NUR >> [Links sind nur für registrierte und aktivierte Nutzer sichtbar. Klicke hier um dich zu registrieren.] <<
    Bitte IMMER den Thread-Link mitschicken.

  6. #4
    Kami-sama Avatar von galudo
    Registriert seit
    Mar 2015
    Beiträge
    1.370
    Punkte
    25.967
    Errungenschaften:
    TomodachisTagger ProfiHyperaktivSenpaiGang Leader

    AW: Tanaka-kun wa Itsumo Kedaruge [Laufend][Jap-Dub][Ger-Sub][720p][HDTV] - LS

    Episode 05 Online
    SUPPORT UND REUP ANFRAGEN NUR >> [Links sind nur für registrierte und aktivierte Nutzer sichtbar. Klicke hier um dich zu registrieren.] <<
    Bitte IMMER den Thread-Link mitschicken.

  7. #5
    Kami-sama Avatar von galudo
    Registriert seit
    Mar 2015
    Beiträge
    1.370
    Punkte
    25.967
    Errungenschaften:
    TomodachisTagger ProfiHyperaktivSenpaiGang Leader

    AW: Tanaka-kun wa Itsumo Kedaruge [Laufend][Jap-Dub][Ger-Sub][720p][HDTV] - LS

    Episode 06 Online
    SUPPORT UND REUP ANFRAGEN NUR >> [Links sind nur für registrierte und aktivierte Nutzer sichtbar. Klicke hier um dich zu registrieren.] <<
    Bitte IMMER den Thread-Link mitschicken.

Lesezeichen

Berechtigungen

  • Neue Themen erstellen: Nein
  • Themen beantworten: Nein
  • Anhänge hochladen: Nein
  • Beiträge bearbeiten: Nein
  •  

1 2 3 4 5 6 7 8 9 10 11 12 13 14 15 16 17 18 19 20 21 22 23 24 25 26 27 28 29 30 31 32 33 34 35 36 37 38 39 40 41 42 43 44 45 46 47 48 49 50 51 52 53 54 55 56 57 58 59 60 61 62 63 64 65 66 67 68 69 70 71 72 73 74 75 76 77 78 79 80 81 82 83 84 85 86 87 88 89 90 91 92 93 94 95 96 97 98 99 100 101 102 103 104 105 106 107 108 109 110 111 112 113 114 115 116 117 118 119 120 121 122 123 124 125 126 127 128 129 130 131 132 133 134 135 136 137 138 139 140 141 142 143 144 145 146 147 148 149 150 151 152 153 154 155 156 157 158