Ergebnis 1 bis 1 von 1

Thema: Tayutama: Kiss on my Deity [Jap-Dub][Ger-Sub][720p][HDTV] - B-F

Dieser Thread wurde noch nicht bewertet. Bewerte ihn doch, wenn er dir gefällt!
  1. #1
    United we Stand Avatar von 00Ryuji00
    Registriert seit
    Oct 2012
    Beiträge
    3.902
    Punkte
    100.019
    Errungenschaften:
    TomodachisGang LeaderHikikomoriTagger Amateur50000 Erfahrungspunkte

    Tayutama: Kiss on my Deity [Jap-Dub][Ger-Sub][720p][HDTV] - B-F


    Tayutama: Kiss on my Deity
    タユタマ -Kiss on my Deity-






    Kurzbeschreibung:
    Zitat Zitat von AniSearch.com
    Mito Yuuri ist ein Highschool-Schüler, dessen Vater einen Schrein leitet. Er interessiert sich für Autos und Motorräder, denkt jedoch daran, seinen Vater zu beerben, sobald er die Schule abgeschlossen hat. Eines Tages wird in der Schule ein altes Gefäß gefunden, von dem niemand weiß, was es ist, das Mito aber schon einmal im Schrein seiner Familie gesehen hat. Dort wird die Legende einer Gottheit namens Tayutama-sama erzählt, die über das Gebiet wachen soll, jedoch wie auch andere sogenannte "Tayutai" im Laufe der Zeit verschwunden ist. Bei der Feier zum Beginn des neuen Schuljahres erscheint ein mysteriöses Mädchen namens Mashiro vor ihm, die in Verbindung zu dem Fundstück und der Legende von Tayutayu-sama steht.


    Spieldauer: 24min
    Genre: Romantische Komödie
    Nebengenres: Drama, Ecchi, Harem, Komödie, Romanze
    Jahr: 2009
    Sprache: Japanisch
    Untertitel: Deutsch
    Größe pro Folge: ~300 MiB
    Episodenanzahl: 12/12
    Format: MP4
    Auflösung: 720p (16:9)
    Videocodec: x264 (AVC)
    Audiocodec: AAC
    Releasegruppe: B-F
    Hoster: Share-Online, Uploaded


    MediaInfo
    Code:
    
    Format                                   : MPEG-4
    Format profile                           : Base Media
    Codec ID                                 : isom
    File size                                : 300 MiB
    Duration                                 : 24mn 0s
    Overall bit rate mode                    : Variable
    Overall bit rate                         : 1 748 Kbps
    Encoded date                             : UTC 2009-10-14 20:15:52
    Tagged date                              : UTC 2009-10-14 20:15:52
    
    Video
    ID                                       : 1
    Format                                   : AVC
    Format/Info                              : Advanced Video Codec
    Format profile                           : [email protected]
    Format settings, CABAC                   : Yes
    Format settings, ReFrames                : 8 frames
    Codec ID                                 : avc1
    Codec ID/Info                            : Advanced Video Coding
    Duration                                 : 23mn 59s
    Bit rate                                 : 1 649 Kbps
    Maximum bit rate                         : 3 635 Kbps
    Width                                    : 1 280 pixels
    Height                                   : 720 pixels
    Display aspect ratio                     : 16:9
    Frame rate mode                          : Constant
    Frame rate                               : 23.976 fps
    Color space                              : YUV
    Chroma subsampling                       : 4:2:0
    Bit depth                                : 8 bits
    Scan type                                : Progressive
    Bits/(Pixel*Frame)                       : 0.075
    Stream size                              : 283 MiB (94%)
    Writing library                          : x264 core 67 r1130 8475977
    Encoding settings                        : cabac=1 / ref=8 / deblock=1:-2:-1 / analyse=0x3:0x133 / me=esa / subme=9 / psy_rd=0.8:0.0 / mixed_ref=1 / me_range=24 / chroma_me=1 / trellis=2 / 8x8dct=1 / cqm=0 / deadzone=21,11 / chroma_qp_offset=-2 / threads=3 / nr=0 / decimate=0 / mbaff=0 / bframes=4 / b_pyramid=0 / b_adapt=2 / b_bias=0 / direct=3 / wpredb=1 / keyint=8 / keyint_min=5 / scenecut=40 / rc=2pass / bitrate=1649 / ratetol=1.0 / qcomp=0.60 / qpmin=10 / qpmax=51 / qpstep=4 / cplxblur=20.0 / qblur=0.5 / vbv_maxrate=15000 / vbv_bufsize=15000 / ip_ratio=1.40 / pb_ratio=1.30 / aq=1:0.70
    Encoded date                             : UTC 2009-10-14 15:46:31
    Tagged date                              : UTC 2009-10-14 20:16:29
    
    Audio
    ID                                       : 2
    Format                                   : AAC
    Format/Info                              : Advanced Audio Codec
    Format profile                           : LC
    Codec ID                                 : 40
    Duration                                 : 24mn 0s
    Bit rate mode                            : Variable
    Bit rate                                 : 96.0 Kbps
    Maximum bit rate                         : 103 Kbps
    Channel(s)                               : 2 channels
    Channel positions                        : Front: L R
    Sampling rate                            : 48.0 KHz
    Compression mode                         : Lossy
    Stream size                              : 16.5 MiB (5%)
    Title                                    : Japanisch
    Language                                 : Japanese
    Encoded date                             : UTC 2009-10-14 20:16:27
    Tagged date                              : UTC 2009-10-14 20:16:29
    
    




    Geschützter Bereich - Bedanke dich beim Poster, um den Bereich sehen zu können
    Hier erfährst Du wie Du Dich bedanken kannst oder werde jetzt Premium Mitglied ab einer Spende von 5€ und erhalte sofortigen Zugriff auf den Downloadbereich!

    [Links sind nur für registrierte und aktivierte Nutzer sichtbar. Klicke hier um dich zu registrieren.]
    !!!Alle Anliegen bezüglich Uploads werden nur mit direktem Threadlink zum Angebot bearbeitet!!!

    Re-Uploadanfragen nur per PN - Ihr könnt mir auch Listen schicken

    Re-Uploads erfolgen meist innerhalb 24h, kann aber auch bis zu 7 Tage dauern

    [Links sind nur für registrierte und aktivierte Nutzer sichtbar. Klicke hier um dich zu registrieren.] | [Links sind nur für registrierte und aktivierte Nutzer sichtbar. Klicke hier um dich zu registrieren.] | >[Links sind nur für registrierte und aktivierte Nutzer sichtbar. Klicke hier um dich zu registrieren.]<
    [Links sind nur für registrierte und aktivierte Nutzer sichtbar. Klicke hier um dich zu registrieren.]

  2. 7 Benutzer sagen Danke:

    Aluaran (20. May 2016),Angel86 (28. May 2016),heikobaer (20. May 2016),shawn10398 (19. June 2016),SnowCat (22. May 2016),xhellsingx (20. May 2016),xRei (23. June 2016)

Lesezeichen

Berechtigungen

  • Neue Themen erstellen: Nein
  • Themen beantworten: Nein
  • Anhänge hochladen: Nein
  • Beiträge bearbeiten: Nein
  •  

1 2 3 4 5 6 7 8 9 10 11 12 13 14 15 16 17 18 19 20 21 22 23 24 25 26 27 28 29 30 31 32 33 34 35 36 37 38 39 40 41 42 43 44 45 46 47 48 49 50 51 52 53 54 55 56 57 58 59 60 61 62 63 64 65 66 67 68 69 70 71 72 73 74 75 76 77 78 79 80 81 82 83 84 85 86 87 88 89 90 91 92 93 94 95 96 97 98 99 100 101 102 103 104 105 106 107 108 109 110 111 112 113 114 115 116 117 118 119 120 121 122 123 124 125 126 127 128 129 130 131 132 133 134 135 136 137 138 139 140 141 142 143 144 145 146 147 148 149 150 151 152 153 154 155 156 157 158