Ergebnis 1 bis 1 von 1

Thema: Terra e... (2007) + OVA [Jap-Dub][Ger-Sub][396p][DVDRip]

Dieser Thread wurde noch nicht bewertet. Bewerte ihn doch, wenn er dir gefällt!
  1. #1
    United we Stand Avatar von 00Ryuji00
    Registriert seit
    Oct 2012
    Beiträge
    3.902
    Punkte
    99.938
    Errungenschaften:
    TomodachisGang LeaderHikikomoriTagger Amateur50000 Erfahrungspunkte

    Terra e... (2007) + OVA [Jap-Dub][Ger-Sub][396p][DVDRip]


    Terra e... (2007)
    地球へ... (2007)
    Toward the Terra...
    To Terra...






    Kurzbeschreibung:
    Zitat Zitat von AniSearch.com
    Eine entfernte Zukunft - Die Menschheit musste den durch Umweltzerstörung zugrundegerichteten Planeten Erde verlassen und begann die Kolonisation des Weltraums, um sich in den Tiefen des Alls eine neue Heimat zu erschaffen. Die menschliche Gesellschaft wird mittlerweile von Super-Computern kontrolliert, welche die Geburtenrate der Population überwachen. Plötzlich taucht innerhalb dieser Gesellschaft eine Spezies auf, die sich die "Mu" nennen. Verborgen vor dem Rest der Menschheit, hegen sie nur den einen Traum, eines Tages die Rückkehr zur Erde zu ermöglichen...


    Spieldauer: 24min
    Genre: Actiondrama
    Nebengenres: Action, Drama, Männlich, Psychodrama, Sci-Fi
    Jahr: 2007
    Sprache: Japanisch
    Untertitel: Deutsch
    Größe pro Folge:
    Episodenanzahl: 24/24 + 1/1 + Epilog
    Format: avi
    Auflösung: 396p (16:9)
    Videocodec: XviD
    Releasegruppe: C-Subs
    Hoster: Share-Online, Uploaded


    MediaInfo
    Code:
    
    Format                                   : AVI
    Format/Info                              : Audio Video Interleave
    Format profile                           : OpenDML
    Format settings                          : rec
    File size                                : 182 MiB
    Duration                                 : 24mn 4s
    Overall bit rate                         : 1 054 Kbps
    Writing application                      : AVI-Mux GUI 1.17.7, Aug  8 2006  20:59:17
    
    Video
    ID                                       : 0
    Format                                   : MPEG-4 Visual
    Format profile                           : Advanced [email protected]
    Format settings, BVOP                    : 4
    Format settings, QPel                    : No
    Format settings, GMC                     : No warppoints
    Format settings, Matrix                  : Default (H.263)
    Codec ID                                 : XVID
    Codec ID/Hint                            : XviD
    Duration                                 : 24mn 4s
    Bit rate                                 : 922 Kbps
    Width                                    : 704 pixels
    Height                                   : 396 pixels
    Display aspect ratio                     : 16:9
    Frame rate                               : 23.976 fps
    Color space                              : YUV
    Chroma subsampling                       : 4:2:0
    Bit depth                                : 8 bits
    Scan type                                : Progressive
    Compression mode                         : Lossy
    Bits/(Pixel*Frame)                       : 0.138
    Stream size                              : 159 MiB (87%)
    Writing library                          : XviD 1.2.0.dev47 (UTC 2006-11-01)
    
    Audio
    ID                                       : 1
    Format                                   : MPEG Audio
    Format version                           : Version 1
    Format profile                           : Layer 3
    Mode                                     : Joint stereo
    Mode extension                           : MS Stereo
    Codec ID                                 : 55
    Codec ID/Hint                            : MP3
    Duration                                 : 24mn 4s
    Bit rate mode                            : Constant
    Bit rate                                 : 128 Kbps
    Channel count                            : 2 channels
    Sampling rate                            : 48.0 KHz
    Compression mode                         : Lossy
    Stream size                              : 22.0 MiB (12%)
    Alignment                                : Aligned on interleaves
    Interleave, duration                     : 717 ms (17.19 video frames)
    Interleave, preload duration             : 216 ms
    Title                                    : [S^M] TOWARD THE TERRA 01 RAW
    Writing library                          : LAME3.98a
    Encoding settings                        : -m j -V 4 -q 2 -lowpass 17 -b 128
    
    





    Geschützter Bereich - Bedanke dich beim Poster, um den Bereich sehen zu können
    Hier erfährst Du wie Du Dich bedanken kannst oder werde jetzt Premium Mitglied ab einer Spende von 5€ und erhalte sofortigen Zugriff auf den Downloadbereich!

    !!!Alle Anliegen bezüglich Uploads werden nur mit direktem Threadlink zum Angebot bearbeitet!!!

    Re-Uploadanfragen nur per PN - Ihr könnt mir auch Listen schicken

    Re-Uploads erfolgen meist innerhalb 24h, kann aber auch bis zu 7 Tage dauern

    [Links sind nur für registrierte und aktivierte Nutzer sichtbar. Klicke hier um dich zu registrieren.] | [Links sind nur für registrierte und aktivierte Nutzer sichtbar. Klicke hier um dich zu registrieren.] | >[Links sind nur für registrierte und aktivierte Nutzer sichtbar. Klicke hier um dich zu registrieren.]<
    [Links sind nur für registrierte und aktivierte Nutzer sichtbar. Klicke hier um dich zu registrieren.]

  2. 7 Benutzer sagen Danke:

    Aluaran (11. August 2015),Icke (25. February 2016),midnighter (13. August 2015),prinzvegeta (3. September 2015),realmadridcf (2. October 2015),Tenma90 (29. September 2015),thegroudge (15. November 2015)

Lesezeichen

Berechtigungen

  • Neue Themen erstellen: Nein
  • Themen beantworten: Nein
  • Anhänge hochladen: Nein
  • Beiträge bearbeiten: Nein
  •  

1 2 3 4 5 6 7 8 9 10 11 12 13 14 15 16 17 18 19 20 21 22 23 24 25 26 27 28 29 30 31 32 33 34 35 36 37 38 39 40 41 42 43 44 45 46 47 48 49 50 51 52 53 54 55 56 57 58 59 60 61 62 63 64 65 66 67 68 69 70 71 72 73 74 75 76 77 78 79 80 81 82 83 84 85 86 87 88 89 90 91 92 93 94 95 96 97 98 99 100 101 102 103 104 105 106 107 108 109 110 111 112 113 114 115 116 117 118 119 120 121 122 123 124 125 126 127 128 129 130 131 132 133 134 135 136 137 138 139 140 141 142 143 144 145 146 147 148 149 150 151 152 153 154 155 156 157 158