Ergebnis 1 bis 4 von 4

Thema: Terra Formars: Bugs2 2599 [Ger Sub][Jap Dub][720p][HDTV]

Dieser Thread wurde noch nicht bewertet. Bewerte ihn doch, wenn er dir gefällt!
  1. #1
    Erfahrener Otaku Avatar von Kajiro
    Registriert seit
    Mar 2014
    Ort
    Irgendwo im Nirgendwo
    Beiträge
    213
    Punkte
    10.403
    Errungenschaften:
    10000 ErfahrungspunkteHikikomori

    Terra Formars: Bugs2 2599 [Ger Sub][Jap Dub][720p][HDTV]

    Terra Formars: Bugs2 2599





    Kurzbeschreibung:
    Um das Problem der stetig wachsenden Population auf der Erde in den Griff zu bekommen, startete die United-NASA im 21. Jahrhundert ein Projekt zur Bevölkerung des Mars.

    Damit sich das Klima des Mars stabilisieren konnte, bedeckte die U-NASA seine Oberfläche mit 2, den harten Bedingungen des Mars trotzenden, Organismen: Einem bestimmten Moos, sowie gewöhnlichen Kakerlaken, die sich von dem Moos ernähren sollten und deren Kadaver dem Moos wiederum als Nährboden dienten. Die beiden Organismen sollten, während sie sich auf dem Mars ausbreiteten, das Sonnenlicht aufnehmen, um so über viele Jahre hinweg die Marsoberfläche langsam zu erwärmen.

    500 Jahre später hat sich das Klima auf dem Mars weitestgehend stabilisiert und die U-NASA startete im Jahr 2577 das erste bemannte Raumschiff zum Mars. Doch was sie dort vorfanden, hätten sie sich in ihren kühnsten Träumen nicht ausmalen können.

    Die ausgesetzten Kakerlaken haben sich in nur 500 Jahren zu primitiven, humanoiden Lebensformen entwickelt, deren monströse Stärke nur von ihrem Drang, Menschen zu töten, übertroffen wird.
    Als Antwort auf die neue Bedrohung entsendet die Menschheit nun genetisch veränderte Super-Soldaten, die den Kakerlaken den Krieg erklären und den Mars zurückerobern sollen.


    Sprache: Japanisch
    Untertitel: Deutsch
    Folgen:2/2
    Größe:~300MB
    Format: MKV
    Auflösung: 1280x720
    Genre: Horror/Splatter
    Sub Gruppe:[L-S]


    Datei Info:
    Spoiler
    Video
    ID : 1
    Format : AVC
    Format/Info : Advanced Video Codec
    Format profile : [email protected]
    Format settings, CABAC : Yes
    Format settings, ReFrames : 9 frames
    Codec ID : avc1
    Codec ID/Info : Advanced Video Coding
    Duration : 23mn 46s
    Bit rate : 1 618 Kbps
    Maximum bit rate : 6 256 Kbps
    Width : 1 280 pixels
    Height : 720 pixels
    Display aspect ratio : 16:9
    Frame rate mode : Constant
    Frame rate : 23.976 fps
    Color space : YUV
    Chroma subsampling : 4:2:0
    Bit depth : 8 bits
    Scan type : Progressive
    Bits/(Pixel*Frame) : 0.073
    Stream size : 275 MiB (92%)
    Writing library : x264 core 142 r2431+42 c69a006 tMod [[email protected] X86_64]

    Audio
    ID : 2
    Format : AAC
    Format/Info : Advanced Audio Codec
    Format profile : LC
    Codec ID : 40
    Duration : 23mn 52s
    Bit rate mode : Variable
    Bit rate : 132 Kbps
    Maximum bit rate : 201 Kbps
    Channel(s) : 2 channels
    Channel positions : Front: L R
    Sampling rate : 44.1 KHz
    Compression mode : Lossy
    Delay relative to video : -3s 337ms
    Stream size : 22.4 MiB (8%)
    Encoded date : UTC 2014-09-06 17:50:24
    Tagged date : UTC 2014-09-06 17:50:27





    Geschützter Bereich - Bedanke dich beim Poster, um den Bereich sehen zu können
    Hier erfährst Du wie Du Dich bedanken kannst oder werde jetzt Premium Mitglied ab einer Spende von 5€ und erhalte sofortigen Zugriff auf den Downloadbereich!

    Geändert von Kajiro (17. December 2014 um 21:09 Uhr) Grund: Terra Formars in vorhanden Tread eingebunden,Terra Formars: Bugs2 2599 seperaten Tread erstellt
    Inaktiver Uploader!

    Alle Re-Upload-Anfragen öffentlich im [Links sind nur für registrierte und aktivierte Nutzer sichtbar. Klicke hier um dich zu registrieren.] posten!

  2. 43 Benutzer sagen Danke:

    1234Ace1234 (18. December 2014),Alecith (11. July 2015),Aman87 (20. April 2015),BlackPhoenix (18. November 2014),Blocker (18. December 2014),Bloodywaffe (20. December 2015),chewbacka (6. September 2015),chris1989 (4. October 2015),coldbears48 (3. April 2016),Dark Justice (18. November 2014),dionys (5. March 2015),FengShui (17. July 2016),Fumoffu78_inactive (16. February 2015),gbergmann (15. January 2015),Glade (26. April 2016),Gourmet-Cannibal (10. July 2016),Hisamaki (17. December 2014),jsuppen (13. December 2014),JugoBetrugo (21. August 2015),Katsura (11. March 2016),Kimaliko (6. April 2015),LawrenceKraft (25. May 2016),lorenor-jim (18. February 2015),macis2013 (18. November 2014),mar3el (3. January 2016),Max13493 (18. November 2014),midnighter (22. November 2014),Miles360 (19. March 2016),nebulasar (17. June 2015),Over (28. February 2015),prinzvegeta (15. November 2015),ProHitman47 (7. April 2015),Raidøn (20. November 2014),reaLity_ (30. December 2014),Seki (31. March 2015),Shana:3 (19. November 2014),SnowCat (9. February 2015),SourceSeeker (2. May 2015),todarist1 (23. October 2015),Tschu23 (2. April 2016),Valetinese (18. November 2014),YamiXGhost (22. August 2015),Zapzerap (11. September 2015)

  3. #2
    Freigeschalteter Otaku
    Registriert seit
    Feb 2014
    Beiträge
    7
    Punkte
    3.140
    Errungenschaften:
    1000 ErfahrungspunkteHikikomori

    AW: Terra Formars [1080p][WebRip] / Terra Formars: Bugs2 2599 [720p][HDTV][Ger Sub][Jap Dub]

    Sind die Episoden alle Uncut?

  4. 1 Benutzer sagt Danke:

    SnowCat (9. February 2015)

  5. #3
    Erfahrener Otaku Avatar von Kajiro
    Registriert seit
    Mar 2014
    Ort
    Irgendwo im Nirgendwo
    Beiträge
    213
    Punkte
    10.403
    Errungenschaften:
    10000 ErfahrungspunkteHikikomori

    AW: Terra Formars [1080p][WebRip] / Terra Formars: Bugs2 2599 [720p][HDTV][Ger Sub][Jap Dub]

    Die ersten 3 sind die UC versionen, aber keine Ahnung ob die anderen Zensiert sind, hatte eigendlich nicht den eindruck
    Inaktiver Uploader!

    Alle Re-Upload-Anfragen öffentlich im [Links sind nur für registrierte und aktivierte Nutzer sichtbar. Klicke hier um dich zu registrieren.] posten!

  6. 1 Benutzer sagt Danke:

    SnowCat (9. February 2015)

  7. #4
    Erfahrener Otaku Avatar von Kajiro
    Registriert seit
    Mar 2014
    Ort
    Irgendwo im Nirgendwo
    Beiträge
    213
    Punkte
    10.403
    Errungenschaften:
    10000 ErfahrungspunkteHikikomori

    AW: Terra Formars: Bugs2 2599 [Ger Sub][Jap Dub][720p][HDTV]

    Folge 2 hinzugefügt.

    Somit Komplett Online!
    Inaktiver Uploader!

    Alle Re-Upload-Anfragen öffentlich im [Links sind nur für registrierte und aktivierte Nutzer sichtbar. Klicke hier um dich zu registrieren.] posten!

  8. 1 Benutzer sagt Danke:

    SnowCat (9. February 2015)

Lesezeichen

Berechtigungen

  • Neue Themen erstellen: Nein
  • Themen beantworten: Nein
  • Anhänge hochladen: Nein
  • Beiträge bearbeiten: Nein
  •  

1 2 3 4 5 6 7 8 9 10 11 12 13 14 15 16 17 18 19 20 21 22 23 24 25 26 27 28 29 30 31 32 33 34 35 36 37 38 39 40 41 42 43 44 45 46 47 48 49 50 51 52 53 54 55 56 57 58 59 60 61 62 63 64 65 66 67 68 69 70 71 72 73 74 75 76 77 78 79 80 81 82 83 84 85 86 87 88 89 90 91 92 93 94 95 96 97 98 99 100 101 102 103 104 105 106 107 108 109 110 111 112 113 114 115 116 117 118 119 120 121 122 123 124 125 126 127 128 129 130 131 132 133 134 135 136 137 138 139 140 141 142 143 144 145 146 147 148 149 150 151 152 153 154 155 156 157 158