Ergebnis 1 bis 1 von 1

Thema: Tiger & Bunny [Jap-Dub][Ger-Sub][720p][BluRay] - LS

Dieser Thread wurde noch nicht bewertet. Bewerte ihn doch, wenn er dir gefällt!
  1. #1
    Kami-sama Avatar von galudo
    Registriert seit
    Mar 2015
    Beiträge
    1.369
    Punkte
    25.903
    Errungenschaften:
    TomodachisTagger ProfiHyperaktivSenpaiGang Leader

    Tiger & Bunny [Jap-Dub][Ger-Sub][720p][BluRay] - LS

    Tiger & Bunny
    TIGER & BUNNY
    Tiger and Bunny, Taibani



    Kurzbeschreibung
    In der Stadt Sternbild leben die "Next": Superhelden mit speziellen Fähigkeiten. Diese Helden lösen Fälle und retten Leben, um gesponsort zu werden oder "Heldenpunkte" zu sammeln und ihre Taten werden durch das beliebte Programm "Hero TV" dokumentiert, das jährlich den "König der Helden" auswählt.

    Der altgediente Held Wild Tiger zog es stets vor alleine zu arbeiten, aber nun wurde ihm ein Anfänger namens Barnaby Brooks Jr. zugeteilt, der eine andere Ansicht über das Superheldendasein hat.
    Format: MP4
    Sprache: Japanisch
    Untertitel: Deutsch
    Genre: Action, Superkräfte, Komödie, Drama
    Größe: ~ 330 MB pro Folge | Gesamtgröße: 7,95 GB
    Dauer: ~ 25 Minuten
    Jahr: 2011
    Video: 720p
    Source: BluRay
    Subgroup / Releasegroup: Lunatic-Studio

    Hoster: Share-Online | Uploaded
    Passwort: siehe unten


    Datei-Info
    Spoiler
    Code:
    General
    Complete name                  : [L-S] Tiger & Bunny - 01 (1280x720 h264 AAC) [81E51DE2].mp4
    Format                         : MPEG-4
    Format profile                 : Base Media
    Codec ID                       : isom
    File size                      : 334 MiB
    Duration                       : 24mn 31s
    Overall bit rate mode          : Variable
    Overall bit rate               : 1 906 Kbps
    Encoded date                   : UTC 2016-02-27 11:57:42
    Tagged date                    : UTC 2016-02-27 11:57:42
    
    Video
    ID                             : 1
    Format                         : AVC
    Format/Info                    : Advanced Video Codec
    Format profile                 : [email protected]
    Format settings, CABAC         : Yes
    Format settings, ReFrames      : 4 frames
    Codec ID                       : avc1
    Codec ID/Info                  : Advanced Video Coding
    Duration                       : 24mn 31s
    Bit rate                       : 1 713 Kbps
    Maximum bit rate               : 12.2 Mbps
    Width                          : 1 280 pixels
    Height                         : 720 pixels
    Display aspect ratio           : 16:9
    Frame rate mode                : Constant
    Frame rate                     : 23.976 fps
    Color space                    : YUV
    Chroma subsampling             : 4:2:0
    Bit depth                      : 8 bits
    Scan type                      : Progressive
    Bits/(Pixel*Frame)             : 0.078
    Stream size                    : 300 MiB (90%)
    Title                          : Lunatic-Studio
    Writing library                : x264 core 148 r2597 e86f3a1
    Encoding settings              : cabac=1 / ref=3 / deblock=1:1:1 / analyse=0x3:0x133 / me=umh / subme=10 / psy=1 / psy_rd=1.00:0.00 / mixed_ref=1 / me_range=24 / chroma_me=1 / trellis=2 / 8x8dct=1 / cqm=0 / deadzone=21,11 / fast_pskip=0 / chroma_qp_offset=-2 / threads=6 / lookahead_threads=1 / sliced_threads=0 / nr=0 / decimate=0 / interlaced=0 / bluray_compat=0 / constrained_intra=0 / bframes=3 / b_pyramid=2 / b_adapt=2 / b_bias=0 / direct=3 / weightb=1 / open_gop=0 / weightp=2 / keyint=250 / keyint_min=23 / scenecut=40 / intra_refresh=0 / rc_lookahead=60 / rc=crf / mbtree=1 / crf=22.0 / qcomp=0.60 / qpmin=0 / qpmax=69 / qpstep=4 / ip_ratio=1.40 / aq=2:0.85
    Encoded date                   : UTC 2016-02-27 11:57:42
    Tagged date                    : UTC 2016-02-27 11:57:53
    
    Audio
    ID                             : 2
    Format                         : AAC
    Format/Info                    : Advanced Audio Codec
    Format profile                 : LC
    Codec ID                       : 67
    Duration                       : 24mn 31s
    Bit rate mode                  : Variable
    Bit rate                       : 192 Kbps
    Maximum bit rate               : 197 Kbps
    Channel(s)                     : 2 channels
    Channel positions              : Front: L R
    Sampling rate                  : 48.0 KHz
    Compression mode               : Lossy
    Stream size                    : 33.1 MiB (10%)
    Encoded date                   : UTC 2016-02-27 11:57:50
    Tagged date                    : UTC 2016-02-27 11:57:53


    Folgen 25 / 25 online
    Folgen einzeln ladbar



    || Download & Passwort ||


    Geschützter Bereich - Bedanke dich beim Poster, um den Bereich sehen zu können
    Hier erfährst Du wie Du Dich bedanken kannst oder werde jetzt Premium Mitglied ab einer Spende von 5€ und erhalte sofortigen Zugriff auf den Downloadbereich!

    Geändert von galudo (12. October 2016 um 18:39 Uhr)
    SUPPORT UND REUP ANFRAGEN NUR >> [Links sind nur für registrierte und aktivierte Nutzer sichtbar. Klicke hier um dich zu registrieren.] <<
    Bitte IMMER den Thread-Link mitschicken.

  2. 11 Benutzer sagen Danke:

    Aikanary (22. March 2016),Akulti (12. April 2016),Antipott (17. March 2016),Flowbow (8. April 2016),IBlackstar (19. April 2016),Kradus (22. March 2016),MattDeox (4. May 2016),Tschu23 (17. March 2016),wire1257 (13. April 2016),YamiXGhost (18. March 2016),Zap (20. November 2016)

Stichworte

Lesezeichen

Berechtigungen

  • Neue Themen erstellen: Nein
  • Themen beantworten: Nein
  • Anhänge hochladen: Nein
  • Beiträge bearbeiten: Nein
  •  

1 2 3 4 5 6 7 8 9 10 11 12 13 14 15 16 17 18 19 20 21 22 23 24 25 26 27 28 29 30 31 32 33 34 35 36 37 38 39 40 41 42 43 44 45 46 47 48 49 50 51 52 53 54 55 56 57 58 59 60 61 62 63 64 65 66 67 68 69 70 71 72 73 74 75 76 77 78 79 80 81 82 83 84 85 86 87 88 89 90 91 92 93 94 95 96 97 98 99 100 101 102 103 104 105 106 107 108 109 110 111 112 113 114 115 116 117 118 119 120 121 122 123 124 125 126 127 128 129 130 131 132 133 134 135 136 137 138 139 140 141 142 143 144 145 146 147 148 149 150 151 152 153 154 155 156 157 158