Ergebnis 1 bis 2 von 2

Thema: Toaru Kagaku no Railgun S (S2) [Jap-Dub][Ger-Sub][720p][HDTV]

Dieser Thread wurde noch nicht bewertet. Bewerte ihn doch, wenn er dir gefällt!
  1. #1
    United we Stand Avatar von 00Ryuji00
    Registriert seit
    Oct 2012
    Beiträge
    3.897
    Punkte
    99.135
    Errungenschaften:
    TomodachisGang LeaderHikikomoriTagger Amateur50000 Erfahrungspunkte

    Toaru Kagaku no Railgun S (S2) [Jap-Dub][Ger-Sub][720p][HDTV]


    Toaru Kagaku no Railgun S

    とある科学の超電磁砲(レールガン)S
    To Aru Kagaku no Choudenjibou S
    A Certain Scientific Railgun S
    Toaru Kagaku no Railgun 2






    Kurzbeschreibung:
    Zitat Zitat von AniSearch.com
    Gerade erst wäre wieder Ruhe in Mikotos Leben eingekehrt, als sich auch schon die nächsten seltsamen Vorfälle in Academy City ereignen. Mysteriöse versteckte Geldkuverts lösen unter der Bevölkerung Schatzjägerstimmung aus und lassen sie die dunklen Ecken und Seitengassen der Stadt durchstreifen. Dem nicht genug, verstärken sich die Gerüchte um vermeintliche Doppelgänger Mikotos und lassen in ihr einen schrecklichen Verdacht aufkommen.


    Spieldauer: 24min
    Genre: Action
    Nebengenres: Action, Komödie, Männlich, Sci-Fi
    Jahr: 2013
    Sprache: Japanisch
    Untertitel: Deutsch
    Größe pro Folge:
    Episodenanzahl: 24/24
    Format: mp4
    Auflösung: 720p (16:9)
    Videocodec: x264 (AVC)
    Releasegruppe: Chinu & No
    Hoster: Share-Online, Uploaded


    MediaInfo
    Code:
    
    Format                                   : MPEG-4
    Format profile                           : Base Media
    Codec ID                                 : isom
    File size                                : 329 MiB
    Duration                                 : 23mn 39s
    Overall bit rate                         : 1 944 Kbps
    Writing application                      : Lavf54.63.104
    
    Video
    ID                                       : 1
    Format                                   : AVC
    Format/Info                              : Advanced Video Codec
    Format profile                           : [email protected]
    Format settings, CABAC                   : Yes
    Format settings, ReFrames                : 9 frames
    Codec ID                                 : avc1
    Codec ID/Info                            : Advanced Video Coding
    Duration                                 : 23mn 39s
    Bit rate                                 : 1 795 Kbps
    Width                                    : 1 280 pixels
    Height                                   : 720 pixels
    Display aspect ratio                     : 16:9
    Frame rate mode                          : Variable
    Frame rate                               : 23.976 fps
    Minimum frame rate                       : 23.952 fps
    Maximum frame rate                       : 24.000 fps
    Color space                              : YUV
    Chroma subsampling                       : 4:2:0
    Bit depth                                : 8 bits
    Scan type                                : Progressive
    Bits/(Pixel*Frame)                       : 0.081
    Stream size                              : 304 MiB (92%)
    Writing library                          : x264 core 130
    Encoding settings                        : cabac=1 / ref=9 / deblock=1:1:1 / analyse=0x3:0x133 / me=umh / subme=9 / psy=1 / psy_rd=0.80:0.20 / mixed_ref=1 / me_range=24 / chroma_me=1 / trellis=2 / 8x8dct=1 / cqm=0 / deadzone=21,11 / fast_pskip=1 / chroma_qp_offset=-3 / threads=6 / lookahead_threads=1 / sliced_threads=0 / nr=0 / decimate=0 / interlaced=0 / bluray_compat=0 / constrained_intra=0 / bframes=9 / b_pyramid=2 / b_adapt=2 / b_bias=0 / direct=3 / weightb=1 / open_gop=0 / weightp=2 / keyint=250 / keyint_min=23 / scenecut=40 / intra_refresh=0 / rc_lookahead=80 / rc=crf / mbtree=1 / crf=19.0 / qcomp=0.60 / qpmin=0 / qpmax=69 / qpstep=4 / vbv_maxrate=2560 / vbv_bufsize=5120 / crf_max=0.0 / nal_hrd=none / ip_ratio=1.40 / aq=1:1.30
    Language                                 : English
    
    Audio
    ID                                       : 2
    Format                                   : AAC
    Format/Info                              : Advanced Audio Codec
    Format profile                           : LC
    Codec ID                                 : 40
    Duration                                 : 23mn 39s
    Bit rate mode                            : Constant
    Bit rate                                 : 141 Kbps
    Channel count                            : 2 channels
    Channel positions                        : Front: L R
    Sampling rate                            : 48.0 KHz
    Compression mode                         : Lossy
    Stream size                              : 23.9 MiB (7%)
    Language                                 : Japanese
    
    Menu
    00:00:00.000                             : Prolog
    00:02:26.772                             : (1) Railgun
    00:09:59.557                             : (2) Railgun
    00:21:59.443                             : Opening
    00:23:29.366                             : Vorschau
    
    





    Geschützter Bereich - Bedanke dich beim Poster, um den Bereich sehen zu können
    Hier erfährst Du wie Du Dich bedanken kannst oder werde jetzt Premium Mitglied ab einer Spende von 5€ und erhalte sofortigen Zugriff auf den Downloadbereich!

    !!!Alle Anliegen bezüglich Uploads werden nur mit direktem Threadlink zum Angebot bearbeitet!!!

    Re-Uploadanfragen nur per PN - Ihr könnt mir auch Listen schicken

    Re-Uploads erfolgen meist innerhalb 24h, kann aber auch bis zu 7 Tage dauern

    [Links sind nur für registrierte und aktivierte Nutzer sichtbar. Klicke hier um dich zu registrieren.] | [Links sind nur für registrierte und aktivierte Nutzer sichtbar. Klicke hier um dich zu registrieren.] | >[Links sind nur für registrierte und aktivierte Nutzer sichtbar. Klicke hier um dich zu registrieren.]<
    [Links sind nur für registrierte und aktivierte Nutzer sichtbar. Klicke hier um dich zu registrieren.]

  2. 17 Benutzer sagen Danke:

    alecander (10. August 2015),Arekusu (18. September 2016),dadoc91 (24. November 2015),frankra (3. July 2016),Haxz0r (23. August 2015),Kushikime (2. May 2016),Linpos (30. December 2015),LOL Meister (28. October 2015),manninator (12. November 2016),midnighter (13. August 2015),Nesal (26. August 2015),nitsuj1001 (1. November 2015),Shiou (18. March 2016),SONNYxq (10. August 2015),Sylux (29. September 2015),Tidus18 (13. December 2015),wasweisich (14. April 2016)

  3. #2
    United we Stand Avatar von 00Ryuji00
    Registriert seit
    Oct 2012
    Beiträge
    3.897
    Punkte
    99.135
    Errungenschaften:
    TomodachisGang LeaderHikikomoriTagger Amateur50000 Erfahrungspunkte

    AW: Toaru Kagaku no Railgun S (S2) [Jap-Dub][Ger-Sub][720p][HDTV]

    Update: Dateien auf Wunsch wieder online.
    !!!Alle Anliegen bezüglich Uploads werden nur mit direktem Threadlink zum Angebot bearbeitet!!!

    Re-Uploadanfragen nur per PN - Ihr könnt mir auch Listen schicken

    Re-Uploads erfolgen meist innerhalb 24h, kann aber auch bis zu 7 Tage dauern

    [Links sind nur für registrierte und aktivierte Nutzer sichtbar. Klicke hier um dich zu registrieren.] | [Links sind nur für registrierte und aktivierte Nutzer sichtbar. Klicke hier um dich zu registrieren.] | >[Links sind nur für registrierte und aktivierte Nutzer sichtbar. Klicke hier um dich zu registrieren.]<
    [Links sind nur für registrierte und aktivierte Nutzer sichtbar. Klicke hier um dich zu registrieren.]

Lesezeichen

Berechtigungen

  • Neue Themen erstellen: Nein
  • Themen beantworten: Nein
  • Anhänge hochladen: Nein
  • Beiträge bearbeiten: Nein
  •  

1 2 3 4 5 6 7 8 9 10 11 12 13 14 15 16 17 18 19 20 21 22 23 24 25 26 27 28 29 30 31 32 33 34 35 36 37 38 39 40 41 42 43 44 45 46 47 48 49 50 51 52 53 54 55 56 57 58 59 60 61 62 63 64 65 66 67 68 69 70 71 72 73 74 75 76 77 78 79 80 81 82 83 84 85 86 87 88 89 90 91 92 93 94 95 96 97 98 99 100 101 102 103 104 105 106 107 108 109 110 111 112 113 114 115 116 117 118 119 120 121 122 123 124 125 126 127 128 129 130 131 132 133 134 135 136 137 138 139 140 141 142 143 144 145 146 147 148 149 150 151 152 153 154 155 156 157 158