Ergebnis 1 bis 1 von 1

Thema: Togainu no Chi Jap-Dub Ger-Sub 2009 Vorbis 720p HDTV x264 - Shiroi-Fansubs

Dieser Thread wurde noch nicht bewertet. Bewerte ihn doch, wenn er dir gefällt!
  1. #1
    High Quality Anime Avatar von Uploading123
    Registriert seit
    Mar 2013
    Beiträge
    1.009
    Punkte
    44.135
    Errungenschaften:
    TomodachisTagger Amateur25000 ErfahrungspunkteHikikomoriKapitän

    Togainu no Chi Jap-Dub Ger-Sub 2009 Vorbis 720p HDTV x264 - Shiroi-Fansubs


    Togainu no Chi German Subbed 2009 Vorbis 720p HDTV x264 - Shiroi-Fansubs




    Nachdem es im dritten Weltkrieg verwüstet wurde, wurde Japan zweigeteilt. Ein paar Jahre später hat die kriminelle Organisation Vischio die Kontrolle über die zerstörte Stadt Toshima, das ehemalige Tokio, übernommen und veranstaltet dort ein tödliches Kampfspiel namens Igura.

    Akira, der junge Champion des [email protected] Straßenkampfturniers, wird plötzlich wegen eines Verbrechens verhaftet, das er nicht begangen hat. Um aus dem Gefängnis zu kommen, geht er mit einer mysteriösen Frau eine Abmachung ein: Er soll den stärksten Mann, den Il-Re, in jenem Igura besiegen.


    Größe: 1.81 GB // ca. 200 MB pro Folge
    Laufzeit: ca. 25 Minuten pro Folge
    Auflösung: 1280x720
    Bittiefe: 8-Bit
    Audio: Vorbis
    Format: mkv
    Codec: x264
    Sprache: Japanisch
    Untertitel: Deutsch
    Release Group: Shiroi-Fansubs
    Episodenanzahl: 12/12

    Mediainfo
    Spoiler

    General
    Unique ID : 183108701835214040714062536272738198557 (0x89C1740489820D8FABE110CAD60B241D)
    Complete name : [SHFS]_Togainu_no_Chi_-_01_(h264_720p)[C39D759D].mkv
    Format : Matroska
    Format version : Version 1
    File size : 194 MiB
    Duration : 24mn 29s
    Overall bit rate mode : Variable
    Overall bit rate : 1 109 Kbps
    Encoded date : UTC 2010-10-12 18:49:50
    Writing application : mkvmerge v2.2.0 ('Turn It On Again') built on Mar 4 2008 13:20:25
    Writing library : libebml v0.7.7 + libmatroska v0.8.1

    Video
    ID : 1
    Format : AVC
    Format/Info : Advanced Video Codec
    Format profile : [email protected]
    Format settings, CABAC : Yes
    Format settings, ReFrames : 9 frames
    Codec ID : V_MPEG4/ISO/AVC
    Duration : 24mn 29s
    Bit rate : 895 Kbps
    Width : 1 280 pixels
    Height : 720 pixels
    Display aspect ratio : 16:9
    Frame rate mode : Constant
    Frame rate : 23.976 fps
    Color space : YUV
    Chroma subsampling : 4:2:0
    Bit depth : 8 bits
    Scan type : Progressive
    Bits/(Pixel*Frame) : 0.040
    Stream size : 157 MiB (81%)
    Title : Togainu no Chi - 01 720p
    Writing library : x264 core 107 r1745 4785e8e
    Encoding settings : cabac=1 / ref=9 / deblock=1:1:1 / analyse=0x3:0x113 / me=umh / subme=8 / psy=1 / psy_rd=0.40:0.00 / mixed_ref=1 / me_range=16 / chroma_me=1 / trellis=1 / 8x8dct=1 / cqm=0 / deadzone=21,11 / fast_pskip=1 / chroma_qp_offset=-2 / threads=2 / sliced_threads=0 / nr=0 / decimate=1 / interlaced=0 / constrained_intra=0 / bframes=5 / b_pyramid=2 / b_adapt=2 / b_bias=0 / direct=3 / weightb=1 / open_gop=0 / weightp=2 / keyint=250 / keyint_min=23 / scenecut=40 / intra_refresh=0 / rc_lookahead=50 / rc=crf / mbtree=1 / crf=18.0 / qcomp=0.60 / qpmin=10 / qpmax=51 / qpstep=4 / ip_ratio=1.40 / aq=1:0.60
    Language : Japanese
    Default : Yes
    Forced : No

    Audio
    ID : 2
    Format : Vorbis
    Format settings, Floor : 1
    Codec ID : A_VORBIS
    Duration : 24mn 29s
    Bit rate mode : Variable
    Bit rate : 192 Kbps
    Channel(s) : 2 channels
    Sampling rate : 48.0 KHz
    Compression mode : Lossy
    Stream size : 33.6 MiB (17%)
    Title : Togainu no Chi - 01 Vorbis
    Writing library : libVorbis (Everywhere) (20100325 (Everywhere))
    Language : Japanese
    Default : Yes
    Forced : No

    Geschützter Bereich - Bedanke dich beim Poster, um den Bereich sehen zu können
    Hier erfährst Du wie Du Dich bedanken kannst oder werde jetzt Premium Mitglied ab einer Spende von 5€ und erhalte sofortigen Zugriff auf den Downloadbereich!

    Ihr seht nur Oboom als Mirror, obwohl Uploaded bzw. Share-Online angegeben ist?
    [Links sind nur für registrierte und aktivierte Nutzer sichtbar. Klicke hier um dich zu registrieren.]

  2. 44 Benutzer sagen Danke:

    Aizen-Sama (29. October 2015),Akio (11. November 2015),animefan84 (1. June 2014),bjoegi (27. July 2014),black_inactive (31. May 2014),Bloodywaffe (24. October 2015),darkwarrior (13. May 2014),Draagul (15. April 2014),Equinox (15. April 2014),Flint (15. April 2014),Fritte_inactive (1. May 2015),Gebbi (14. June 2014),Gott Enel (12. November 2016),Haha1129 (4. December 2014),Horrorholgi (9. April 2015),kadaj93 (21. April 2014),khavatarie (11. June 2014),livia84 (31. December 2015),Magikarp (1. December 2016),mariokeks (16. April 2014),MasterRei (15. April 2014),MegaKiller (27. September 2014),Mufuda (15. April 2014),NeroTheDawn (9. May 2015),PAlNxx (28. April 2014),prinzvegeta (29. November 2015),Rena_Chan (22. April 2015),Riven (17. April 2016),Sakamoto (21. September 2014),SerienStream (28. July 2014),Silencio (18. May 2015),SnowCat (17. April 2014),Sou-chan (26. August 2015),ssj3shad (15. April 2014),Tekk (15. April 2014),Terrorhasii.x3 (8. June 2016),Tet2 (1. June 2014),Tetsu (4. June 2014),The_Iron (15. April 2014),Tibscha (15. April 2014),tobiaswarth (9. April 2016),Zaisen (17. April 2014),ZorroXD (3. May 2014)

Lesezeichen

Berechtigungen

  • Neue Themen erstellen: Nein
  • Themen beantworten: Nein
  • Anhänge hochladen: Nein
  • Beiträge bearbeiten: Nein
  •  

1 2 3 4 5 6 7 8 9 10 11 12 13 14 15 16 17 18 19 20 21 22 23 24 25 26 27 28 29 30 31 32 33 34 35 36 37 38 39 40 41 42 43 44 45 46 47 48 49 50 51 52 53 54 55 56 57 58 59 60 61 62 63 64 65 66 67 68 69 70 71 72 73 74 75 76 77 78 79 80 81 82 83 84 85 86 87 88 89 90 91 92 93 94 95 96 97 98 99 100 101 102 103 104 105 106 107 108 109 110 111 112 113 114 115 116 117 118 119 120 121 122 123 124 125 126 127 128 129 130 131 132 133 134 135 136 137 138 139 140 141 142 143 144 145 146 147 148 149 150 151 152 153 154 155 156 157 158