Ergebnis 1 bis 1 von 1

Thema: Tokimeki Memorial: Only Love [Jap-Dub][Ger-Sub][480p][DVDRip]-GK

Dieser Thread wurde noch nicht bewertet. Bewerte ihn doch, wenn er dir gefällt!
  1. #1
    United we Stand Avatar von 00Ryuji00
    Registriert seit
    Oct 2012
    Beiträge
    3.902
    Punkte
    99.909
    Errungenschaften:
    TomodachisGang LeaderHikikomoriTagger Amateur50000 Erfahrungspunkte

    Tokimeki Memorial: Only Love [Jap-Dub][Ger-Sub][480p][DVDRip]-GK


    Tokimeki Memorial: Only Love
    ときめきメモリアル ~Only Love~






    Kurzbeschreibung:
    Zitat Zitat von AniSearch.com
    Aoba Riku hatte es in seinem bisherigen Schulleben nicht leicht. Aufgrund der Arbeit seines Vaters, musste er nämlich schon über ein Dutzend Mal die Schule wechseln, was ihn bereits durch ganz Japan gebracht hat.

    Das Leben an der Schule, zu der er jetzt gewechselt ist, so plant er, soll normal werden. Ein normales Schulleben, mit keinen außergewöhnlichen Sachen oder Ereignissen, wie das ständige Schule wechseln. So hat er sich das jedenfalls gedacht.

    Die Schule, die er nun besucht, hat ein Motto: Freiheit. Die Schüler genießen mehr Freiheiten, als in üblichen Schulen. Besonders der Studentenrat nutzt das aus. Denn gleich am ersten Tag wird Aoba das Opfer einer Veranstaltung des Studentenrates. Und nicht nur das - er verliebt sich auch! In die Schulschönheit Amamiya....mehr


    Spieldauer: 24min
    Genre: Romantische Komödie
    Nebengenres: Drama, Harem, Komödie, Romanze
    Jahr: 2006
    Sprache: Japanisch
    Untertitel: Deutsch
    Größe pro Folge: ~174 MiB
    Episodenanzahl: 25/25
    Format: MKV
    Auflösung: 480p (16:9)
    Videocodec: x264 (AVC)
    Audiocodec: Vorbis
    Releasegruppe: Gruppe Kampfkuchen
    Hoster: Share-Online, Uploaded


    MediaInfo
    Code:
    
    Format                                   : Matroska
    Format version                           : Version 1
    File size                                : 174 MiB
    Duration                                 : 24mn 20s
    Overall bit rate mode                    : Variable
    Overall bit rate                         : 999 Kbps
    Encoded date                             : UTC 2008-07-21 11:55:50
    Writing application                      : mkvmerge v2.1.0 ('Another Place To Fall') built on Aug 19 2007 13:40:07
    Writing library                          : libebml v0.7.7 + libmatroska v0.8.1
    Attachements                             : GosmickSans.ttf
    
    Video
    ID                                       : 1
    Format                                   : AVC
    Format/Info                              : Advanced Video Codec
    Format profile                           : [email protected]
    Format settings, CABAC                   : Yes
    Format settings, ReFrames                : 16 frames
    Codec ID                                 : V_MPEG4/ISO/AVC
    Duration                                 : 24mn 20s
    Bit rate                                 : 771 Kbps
    Nominal bit rate                         : 810 Kbps
    Width                                    : 720 pixels
    Height                                   : 480 pixels
    Display aspect ratio                     : 16:9
    Original display aspect ratio            : 3:2
    Frame rate mode                          : Constant
    Frame rate                               : 23.976 fps
    Color space                              : YUV
    Chroma subsampling                       : 4:2:0
    Bit depth                                : 8 bits
    Scan type                                : Progressive
    Bits/(Pixel*Frame)                       : 0.093
    Stream size                              : 134 MiB (77%)
    Writing library                          : x264 core 60 r901M 58d7d06
    Encoding settings                        : cabac=1 / ref=16 / deblock=1:-2:-1 / analyse=0x3:0x133 / me=esa / subme=7 / rdcmp=psy / brdo=0 / mixed_ref=1 / me_range=16 / chroma_me=1 / trellis=2 / 8x8dct=1 / cqm=0 / deadzone=21,11 / chroma_qp_offset=0 / threads=3 / nr=0 / decimate=1 / mbaff=0 / bframes=16 / b_pyramid=1 / b_adapt=1 / b_bias=0 / direct=3 / wpredb=1 / bime=1 / keyint=900 / keyint_min=25 / scenecut=40(pre) / rc=2pass / bitrate=810 / ratetol=1.0 / rceq='blurCplx^(1-qComp)' / qcomp=1.00 / qpmin=10 / qpmax=51 / qpstep=4 / cplxblur=20.0 / qblur=0.5 / ip_ratio=1.40 / pb_ratio=1.30 / aq=2:0.50
    Language                                 : Japanese
    Default                                  : Yes
    Forced                                   : No
    
    Audio #1
    ID                                       : 2
    Format                                   : Vorbis
    Format settings, Floor                   : 1
    Codec ID                                 : A_VORBIS
    Duration                                 : 24mn 20s
    Bit rate mode                            : Variable
    Bit rate                                 : 104 Kbps
    Channel(s)                               : 2 channels
    Sampling rate                            : 48.0 KHz
    Compression mode                         : Lossy
    Stream size                              : 18.1 MiB (10%)
    Title                                    : Tonspur ohne Hiyoko
    Writing application                      : Made with BeSweet v1.5b31
    Writing library                          : aoTuV Beta 5 (UTC 2006-10-24)
    Language                                 : Japanese
    Default                                  : Yes
    Forced                                   : No
    Encoded_Application/Url                  : http://DSPguru.doom9.org
    
    Audio #2
    ID                                       : 4
    Format                                   : Vorbis
    Format settings, Floor                   : 1
    Codec ID                                 : A_VORBIS
    Duration                                 : 24mn 20s
    Bit rate mode                            : Variable
    Bit rate                                 : 104 Kbps
    Channel(s)                               : 2 channels
    Sampling rate                            : 48.0 KHz
    Compression mode                         : Lossy
    Stream size                              : 18.1 MiB (10%)
    Title                                    : Tonspur mit Hiyoko
    Writing application                      : Made with BeSweet v1.5b31
    Writing library                          : aoTuV Beta 5 (UTC 2006-10-24)
    Language                                 : Japanese
    Default                                  : No
    Forced                                   : No
    Encoded_Application/Url                  : http://DSPguru.doom9.org
    
    Text #1
    ID                                       : 3
    Format                                   : ASS
    Codec ID                                 : S_TEXT/ASS
    Codec ID/Info                            : Advanced Sub Station Alpha
    Compression mode                         : Lossless
    Title                                    : Farbige Untertitel
    Language                                 : German
    Default                                  : Yes
    Forced                                   : No
    
    Text #2
    ID                                       : 5
    Format                                   : ASS
    Codec ID                                 : S_TEXT/ASS
    Codec ID/Info                            : Advanced Sub Station Alpha
    Compression mode                         : Lossless
    Title                                    : Farblose Untertitel
    Language                                 : German
    Default                                  : No
    Forced                                   : No
    
    Text #3
    ID                                       : 6
    Format                                   : ASS
    Codec ID                                 : S_TEXT/ASS
    Codec ID/Info                            : Advanced Sub Station Alpha
    Compression mode                         : Lossless
    Title                                    : Untertitel mit Hiyoko
    Language                                 : German
    Default                                  : No
    Forced                                   : No
    
    Menu
    00:00:00.000                             : :Opening
    00:01:30.023                             : :Episode Teil 1
    00:12:25.011                             : :Eyecatcher
    00:12:35.021                             : :Episode Teil 2
    00:22:20.072                             : :Ending
    00:23:50.029                             : :Vorschau
    
    





    Geschützter Bereich - Bedanke dich beim Poster, um den Bereich sehen zu können
    Hier erfährst Du wie Du Dich bedanken kannst oder werde jetzt Premium Mitglied ab einer Spende von 5€ und erhalte sofortigen Zugriff auf den Downloadbereich!


    [Links sind nur für registrierte und aktivierte Nutzer sichtbar. Klicke hier um dich zu registrieren.]
    !!!Alle Anliegen bezüglich Uploads werden nur mit direktem Threadlink zum Angebot bearbeitet!!!

    Re-Uploadanfragen nur per PN - Ihr könnt mir auch Listen schicken

    Re-Uploads erfolgen meist innerhalb 24h, kann aber auch bis zu 7 Tage dauern

    [Links sind nur für registrierte und aktivierte Nutzer sichtbar. Klicke hier um dich zu registrieren.] | [Links sind nur für registrierte und aktivierte Nutzer sichtbar. Klicke hier um dich zu registrieren.] | >[Links sind nur für registrierte und aktivierte Nutzer sichtbar. Klicke hier um dich zu registrieren.]<
    [Links sind nur für registrierte und aktivierte Nutzer sichtbar. Klicke hier um dich zu registrieren.]

  2. 6 Benutzer sagen Danke:

    Angel86 (12. April 2016),Asuka Langley (19. April 2016),DjRayleigh (11. April 2016),Kosuda-kun (12. April 2016),Ronae (11. April 2016),SnowCat (11. April 2016)

Lesezeichen

Berechtigungen

  • Neue Themen erstellen: Nein
  • Themen beantworten: Nein
  • Anhänge hochladen: Nein
  • Beiträge bearbeiten: Nein
  •  

1 2 3 4 5 6 7 8 9 10 11 12 13 14 15 16 17 18 19 20 21 22 23 24 25 26 27 28 29 30 31 32 33 34 35 36 37 38 39 40 41 42 43 44 45 46 47 48 49 50 51 52 53 54 55 56 57 58 59 60 61 62 63 64 65 66 67 68 69 70 71 72 73 74 75 76 77 78 79 80 81 82 83 84 85 86 87 88 89 90 91 92 93 94 95 96 97 98 99 100 101 102 103 104 105 106 107 108 109 110 111 112 113 114 115 116 117 118 119 120 121 122 123 124 125 126 127 128 129 130 131 132 133 134 135 136 137 138 139 140 141 142 143 144 145 146 147 148 149 150 151 152 153 154 155 156 157 158