Ergebnis 1 bis 1 von 1

Thema: Tokyo Ghoul: Jack [Jap-Dub][Ger-Sub][720p/1080p][BluRay] - AnimeSubways

Dieser Thread wurde noch nicht bewertet. Bewerte ihn doch, wenn er dir gefällt!
  1. #1
    Kami-sama Avatar von galudo
    Registriert seit
    Mar 2015
    Beiträge
    1.371
    Punkte
    26.032
    Errungenschaften:
    TomodachisTagger ProfiHyperaktivSenpaiGang Leader

    Tokyo Ghoul: Jack [Jap-Dub][Ger-Sub][720p/1080p][BluRay] - AnimeSubways

    Tokyo Ghoul: Jack
    東京喰種 【JACK】
    Tokyo Ghoul OVA



    Kurzbeschreibung
    Ein Spin-off zur Hauptreihe, erzählt vom dynamischen und rebellischen Highschool-Schüler Taishi Fura, welcher sich tagsüber mit seinen Mitschülern und Lehrern der Seishin Senior Highschool anlegt und sich Nachts mit der Ermittlung und Nachforschung bezüglich Ghulen auseinandersetzt. Als es im 13. Bezirk von Tokyo zu einem Zwischenfall mit einem Ghul kommt, bei dem sein Kindheitsfreund direkt vor seinen Augen getötet wird, schließt er sich dem jungen Ermittler Kishou Arima an, welcher kürzlich auf Taishis Schule wechselte. Gemeinsam begeben sie sich auf die Suche nach dem Ghul namens Laterne ...
    Format: MP4
    Sprache: Japanisch
    Untertitel: Deutsch
    Genre: Horror, Action, Drama, Fantasy, Krimi, Mystery, Männlich, Psychodrama, Volljährig
    Größe bei 720p: 456 MB
    Größe bei 1080p: 1,32 GB
    Dauer: ~ 30 Minuten
    Jahr: 2015
    Video: 720p & 1080p
    Source: BluRay
    Subgroup / Releasegroup: AnimeSubways

    Hoster: Share-Online | Uploaded
    Passwort: siehe unten


    Datei-Info
    MediaInfo
    720p
    Code:
    General
    Complete name                  : Toyko Ghoul OVA - Jack_H264-1280x720.mp4
    Format                         : MPEG-4
    Format profile                 : Base Media
    Codec ID                       : isom
    File size                      : 456 MiB
    Duration                       : 30mn 3s
    Overall bit rate mode          : Variable
    Overall bit rate               : 2 123 Kbps
    Writing application            : Lavf56.36.100
    
    Video
    ID                             : 1
    Format                         : AVC
    Format/Info                    : Advanced Video Codec
    Format profile                 : [email protected]
    Format settings, CABAC         : Yes
    Format settings, ReFrames      : 5 frames
    Codec ID                       : avc1
    Codec ID/Info                  : Advanced Video Coding
    Duration                       : 30mn 3s
    Bit rate                       : 2 000 Kbps
    Width                          : 1 280 pixels
    Height                         : 720 pixels
    Display aspect ratio           : 16:9
    Frame rate mode                : Constant
    Frame rate                     : 23.976 fps
    Color space                    : YUV
    Chroma subsampling             : 4:2:0
    Bit depth                      : 8 bits
    Scan type                      : Progressive
    Bits/(Pixel*Frame)             : 0.091
    Stream size                    : 428 MiB (94%)
    Writing library                : x264 core 146 r2538 121396c
    Encoding settings              : cabac=1 / ref=5 / deblock=1:0:0 / analyse=0x3:0x113 / me=umh / subme=8 / psy=1 / psy_rd=1.00:0.00 / mixed_ref=1 / me_range=8 / chroma_me=1 / trellis=1 / 8x8dct=1 / cqm=0 / deadzone=21,11 / fast_pskip=1 / chroma_qp_offset=-2 / threads=4 / lookahead_threads=1 / sliced_threads=0 / nr=0 / decimate=1 / interlaced=0 / bluray_compat=0 / constrained_intra=0 / bframes=3 / b_pyramid=2 / b_adapt=2 / b_bias=0 / direct=3 / weightb=1 / open_gop=0 / weightp=2 / keyint=240 / keyint_min=23 / scenecut=40 / intra_refresh=0 / rc_lookahead=50 / rc=2pass / mbtree=1 / bitrate=2000 / ratetol=1.0 / qcomp=0.60 / qpmin=0 / qpmax=69 / qpstep=4 / cplxblur=20.0 / qblur=0.5 / vbv_maxrate=3000 / vbv_bufsize=8000 / nal_hrd=none / filler=0 / ip_ratio=1.40 / aq=1:1.00
    
    Audio
    ID                             : 2
    Format                         : AAC
    Format/Info                    : Advanced Audio Codec
    Format profile                 : LC
    Codec ID                       : 40
    Duration                       : 30mn 3s
    Bit rate mode                  : Variable
    Bit rate                       : 128 Kbps
    Maximum bit rate               : 3 000 Kbps
    Channel(s)                     : 2 channels
    Channel positions              : Front: L R
    Sampling rate                  : 44.1 KHz
    Compression mode               : Lossy
    Stream size                    : 27.4 MiB (6%)
    1080p
    Code:
    General
    Complete name                  : Toyko Ghoul OVA - Jack_H264-1920x1080.mp4
    Format                         : MPEG-4
    Format profile                 : Base Media
    Codec ID                       : isom
    File size                      : 1.29 GiB
    Duration                       : 30mn 3s
    Overall bit rate mode          : Variable
    Overall bit rate               : 6 144 Kbps
    Writing application            : Lavf56.36.100
    
    Video
    ID                             : 1
    Format                         : AVC
    Format/Info                    : Advanced Video Codec
    Format profile                 : [email protected]
    Format settings, CABAC         : Yes
    Format settings, ReFrames      : 5 frames
    Codec ID                       : avc1
    Codec ID/Info                  : Advanced Video Coding
    Duration                       : 30mn 3s
    Bit rate                       : 6 000 Kbps
    Width                          : 1 920 pixels
    Height                         : 1 080 pixels
    Display aspect ratio           : 16:9
    Frame rate mode                : Constant
    Frame rate                     : 23.976 fps
    Color space                    : YUV
    Chroma subsampling             : 4:2:0
    Bit depth                      : 8 bits
    Scan type                      : Progressive
    Bits/(Pixel*Frame)             : 0.121
    Stream size                    : 1.26 GiB (97%)
    Writing library                : x264 core 146 r2538 121396c
    Encoding settings              : cabac=1 / ref=5 / deblock=1:0:0 / analyse=0x3:0x113 / me=umh / subme=8 / psy=1 / psy_rd=1.00:0.00 / mixed_ref=1 / me_range=8 / chroma_me=1 / trellis=1 / 8x8dct=1 / cqm=0 / deadzone=21,11 / fast_pskip=1 / chroma_qp_offset=-2 / threads=4 / lookahead_threads=1 / sliced_threads=0 / nr=0 / decimate=1 / interlaced=0 / bluray_compat=0 / constrained_intra=0 / bframes=3 / b_pyramid=2 / b_adapt=2 / b_bias=0 / direct=3 / weightb=1 / open_gop=0 / weightp=2 / keyint=240 / keyint_min=23 / scenecut=40 / intra_refresh=0 / rc_lookahead=50 / rc=2pass / mbtree=1 / bitrate=6000 / ratetol=1.0 / qcomp=0.60 / qpmin=0 / qpmax=69 / qpstep=4 / cplxblur=20.0 / qblur=0.5 / vbv_maxrate=9000 / vbv_bufsize=24000 / nal_hrd=none / filler=0 / ip_ratio=1.40 / aq=1:1.00
    
    Audio
    ID                             : 2
    Format                         : AAC
    Format/Info                    : Advanced Audio Codec
    Format profile                 : LC
    Codec ID                       : 40
    Duration                       : 30mn 3s
    Bit rate mode                  : Variable
    Bit rate                       : 152 Kbps
    Maximum bit rate               : 9 000 Kbps
    Channel(s)                     : 2 channels
    Channel positions              : Front: L R
    Sampling rate                  : 44.1 KHz
    Compression mode               : Lossy
    Stream size                    : 32.6 MiB (2%)


    OVA 01 / 01 online

    || Download & Passwort ||
    Geschützter Bereich - Bedanke dich beim Poster, um den Bereich sehen zu können
    Hier erfährst Du wie Du Dich bedanken kannst oder werde jetzt Premium Mitglied ab einer Spende von 5€ und erhalte sofortigen Zugriff auf den Downloadbereich!

    Weiteres von Tokyo Ghoul:
    [Links sind nur für registrierte und aktivierte Nutzer sichtbar. Klicke hier um dich zu registrieren.]
    [Links sind nur für registrierte und aktivierte Nutzer sichtbar. Klicke hier um dich zu registrieren.]
    [Links sind nur für registrierte und aktivierte Nutzer sichtbar. Klicke hier um dich zu registrieren.]
    [Links sind nur für registrierte und aktivierte Nutzer sichtbar. Klicke hier um dich zu registrieren.]

    Geändert von galudo (21. April 2016 um 18:17 Uhr)
    SUPPORT UND REUP ANFRAGEN NUR >> [Links sind nur für registrierte und aktivierte Nutzer sichtbar. Klicke hier um dich zu registrieren.] <<
    Bitte IMMER den Thread-Link mitschicken.

  2. 87 Benutzer sagen Danke:

    Anzeigen

    Akio (27. November 2015),Alucard1412 (4. February 2016),Andi1604 (11. November 2015),bastole (23. November 2015),Besen 48 (23. October 2015),Black Lotus (4. November 2015),breccie (17. November 2015),Buttercups (22. October 2015),Cadomura (20. December 2015),coolZER0 (27. November 2015),CrystalBT (6. January 2016),Darth Affe (19. October 2015),data_ghoul (19. October 2015),Deathman515 (26. October 2016),deofration (11. February 2016),drparnassus (22. October 2015),E4GLE (19. October 2015),Eight (6. March 2016),etter (23. November 2015),farmerjoe (19. October 2015),Firefly (20. October 2015),FIRST--LAW--FANTASY (27. October 2015),Freeman1599 (19. October 2015),Geisterhaendler (28. October 2015),Ghostraven (19. October 2015),Goki.Grokus (13. December 2015),h3h3j0 (19. October 2015),hausl (9. January 2016),Haxz0r (19. October 2015),iCapuz (26. September 2016),ikkyyy (20. August 2016),intelatominside (20. January 2016),JapanischerToast (26. November 2015),Juckz (7. January 2016),kadaj93 (7. January 2016),kaitokid187 (20. October 2015),Kaldo (19. October 2015),Kanade Chan (21. April 2016),Kartox (26. October 2015),KuraikoSayo (24. January 2016),Kweepy (28. December 2015),manuel4193 (19. October 2015),McZeRo (3. November 2015),meins-ag (18. January 2016),Meistermagier (15. November 2015),michael187 (19. October 2015),midnighter (26. October 2015),Mikyo (1. December 2015),mrfreeman (18. June 2016),msemi99 (27. November 2015),MViperC (19. October 2015),Nanatzusaya (19. October 2015),Niker92 (7. January 2016),npmusiQ (19. October 2015),Nyan (11. December 2015),ogc1 (26. March 2016),okzide (19. October 2015),Pappkamerad (19. October 2015),passi (19. October 2015),prinzvegeta (30. October 2015),Renxir (20. October 2015),rinnegan93 (17. November 2016),Ronae (19. October 2015),Roxas-chan (22. January 2016),Seregil (21. November 2015),Shana:3 (19. October 2015),Shinu Luna (23. November 2015),Snake356 (19. October 2015),SONNYxq (25. October 2015),Suigetsu (19. October 2015),Sukor924 (3. November 2015),supelco (13. December 2015),sure21 (19. October 2015),Tabuadelo (25. November 2015),TakashiKudo (25. October 2015),thereverend (19. October 2015),tigerhai (4. December 2015),tokyodrift (26. October 2015),Tzi (19. October 2015),T§sseract (20. July 2016),Valetinese (19. October 2015),videoseven (30. April 2016),warhammerx (29. November 2015),Windwusel (14. January 2016),xhellsingx (21. October 2016),Zapzerap (6. March 2016),Zhead22 (20. February 2016)

Stichworte

Lesezeichen

Berechtigungen

  • Neue Themen erstellen: Nein
  • Themen beantworten: Nein
  • Anhänge hochladen: Nein
  • Beiträge bearbeiten: Nein
  •  

1 2 3 4 5 6 7 8 9 10 11 12 13 14 15 16 17 18 19 20 21 22 23 24 25 26 27 28 29 30 31 32 33 34 35 36 37 38 39 40 41 42 43 44 45 46 47 48 49 50 51 52 53 54 55 56 57 58 59 60 61 62 63 64 65 66 67 68 69 70 71 72 73 74 75 76 77 78 79 80 81 82 83 84 85 86 87 88 89 90 91 92 93 94 95 96 97 98 99 100 101 102 103 104 105 106 107 108 109 110 111 112 113 114 115 116 117 118 119 120 121 122 123 124 125 126 127 128 129 130 131 132 133 134 135 136 137 138 139 140 141 142 143 144 145 146 147 148 149 150 151 152 153 154 155 156 157 158