Ergebnis 1 bis 1 von 1

Thema: Tokyo Ghoul: Jack [Jap-Dub][Ger-Sub][720p][BluRay] - Pure-Anime

Dieser Thread wurde noch nicht bewertet. Bewerte ihn doch, wenn er dir gefällt!
  1. #1
    Kami-sama Avatar von galudo
    Registriert seit
    Mar 2015
    Beiträge
    1.371
    Punkte
    26.062
    Errungenschaften:
    TomodachisTagger ProfiHyperaktivSenpaiGang Leader

    Tokyo Ghoul: Jack [Jap-Dub][Ger-Sub][720p][BluRay] - Pure-Anime

    Tokyo Ghoul: Jack
    東京喰種 【JACK】
    Tokyo Ghoul OVA



    Kurzbeschreibung
    Ein Spin-off zur Hauptreihe, erzählt vom dynamischen und rebellischen Highschool-Schüler Taishi Fura, welcher sich tagsüber mit seinen Mitschülern und Lehrern der Seishin Senior Highschool anlegt und sich Nachts mit der Ermittlung und Nachforschung bezüglich Ghulen auseinandersetzt. Als es im 13. Bezirk von Tokyo zu einem Zwischenfall mit einem Ghul kommt, bei dem sein Kindheitsfreund direkt vor seinen Augen getötet wird, schließt er sich dem jungen Ermittler Kishou Arima an, welcher kürzlich auf Taishis Schule wechselte. Gemeinsam begeben sie sich auf die Suche nach dem Ghul namens Laterne ...
    Format: MP4
    Sprache: Japanisch
    Untertitel: Deutsch
    Genre: Horror, Action, Drama, Fantasy, Krimi, Mystery, Männlich, Psychodrama, Volljährig
    Größe: 268 MB
    Dauer: ~ 30 Minuten
    Jahr: 2015
    Video: 720p
    Source: BluRay
    Subgroup / Releasegroup: Pure-Anime

    Hoster: Share-Online | Uploaded
    Passwort: siehe unten


    Datei-Info
    MediaInfo
    Code:
    General
    Complete name                  : [Pure-Anime] Tokyo Ghoul; Jack Ger Sub.mp4
    Format                         : MPEG-4
    Format profile                 : Base Media
    Codec ID                       : isom
    File size                      : 269 MiB
    Duration                       : 30mn 3s
    Overall bit rate mode          : Variable
    Overall bit rate               : 1 251 Kbps
    Encoded date                   : UTC 2015-10-19 02:46:52
    Tagged date                    : UTC 2015-10-19 02:46:52
    
    Video
    ID                             : 1
    Format                         : AVC
    Format/Info                    : Advanced Video Codec
    Format profile                 : [email protected]
    Format settings, CABAC         : Yes
    Format settings, ReFrames      : 4 frames
    Codec ID                       : avc1
    Codec ID/Info                  : Advanced Video Coding
    Duration                       : 30mn 3s
    Bit rate                       : 1 097 Kbps
    Maximum bit rate               : 8 353 Kbps
    Width                          : 1 280 pixels
    Height                         : 720 pixels
    Display aspect ratio           : 16:9
    Frame rate mode                : Constant
    Frame rate                     : 23.976 fps
    Color space                    : YUV
    Chroma subsampling             : 4:2:0
    Bit depth                      : 8 bits
    Scan type                      : Progressive
    Bits/(Pixel*Frame)             : 0.050
    Stream size                    : 236 MiB (88%)
    Writing library                : x264 core 146 r2538 121396c
    Encoding settings              : cabac=1 / ref=3 / deblock=1:0:0 / analyse=0x3:0x113 / me=hex / subme=7 / psy=1 / psy_rd=1.00:0.00 / mixed_ref=1 / me_range=16 / chroma_me=1 / trellis=1 / 8x8dct=1 / cqm=0 / deadzone=21,11 / fast_pskip=1 / chroma_qp_offset=-2 / threads=12 / lookahead_threads=2 / sliced_threads=0 / nr=0 / decimate=1 / interlaced=0 / bluray_compat=0 / constrained_intra=0 / bframes=16 / b_pyramid=2 / b_adapt=1 / b_bias=0 / direct=1 / weightb=1 / open_gop=0 / weightp=2 / keyint=240 / keyint_min=23 / scenecut=40 / intra_refresh=0 / rc_lookahead=40 / rc=2pass / mbtree=1 / bitrate=1097 / ratetol=1.0 / qcomp=0.60 / qpmin=0 / qpmax=69 / qpstep=4 / cplxblur=20.0 / qblur=0.5 / ip_ratio=1.40 / aq=1:1.00
    Encoded date                   : UTC 2015-10-19 02:46:52
    Tagged date                    : UTC 2015-10-19 02:46:54
    
    Audio
    ID                             : 2
    Format                         : AAC
    Format/Info                    : Advanced Audio Codec
    Format profile                 : LC
    Codec ID                       : 40
    Duration                       : 30mn 3s
    Bit rate mode                  : Variable
    Bit rate                       : 151 Kbps
    Maximum bit rate               : 199 Kbps
    Channel(s)                     : 2 channels
    Channel positions              : Front: L R
    Sampling rate                  : 48.0 KHz
    Compression mode               : Lossy
    Stream size                    : 32.5 MiB (12%)
    Encoded date                   : UTC 2015-10-19 02:32:31
    Tagged date                    : UTC 2015-10-19 02:46:54


    OVA 01 / 01 online

    || Download & Passwort ||
    Geschützter Bereich - Bedanke dich beim Poster, um den Bereich sehen zu können
    Hier erfährst Du wie Du Dich bedanken kannst oder werde jetzt Premium Mitglied ab einer Spende von 5€ und erhalte sofortigen Zugriff auf den Downloadbereich!

    Weiteres von Tokyo Ghoul:
    [Links sind nur für registrierte und aktivierte Nutzer sichtbar. Klicke hier um dich zu registrieren.]
    [Links sind nur für registrierte und aktivierte Nutzer sichtbar. Klicke hier um dich zu registrieren.]
    [Links sind nur für registrierte und aktivierte Nutzer sichtbar. Klicke hier um dich zu registrieren.]
    [Links sind nur für registrierte und aktivierte Nutzer sichtbar. Klicke hier um dich zu registrieren.]

    Geändert von galudo (21. April 2016 um 18:12 Uhr)
    SUPPORT UND REUP ANFRAGEN NUR >> [Links sind nur für registrierte und aktivierte Nutzer sichtbar. Klicke hier um dich zu registrieren.] <<
    Bitte IMMER den Thread-Link mitschicken.

  2. 24 Benutzer sagen Danke:

    Andi1604 (11. November 2015),beast27 (8. December 2015),data_ghoul (19. October 2015),Deathman515 (26. October 2016),EniMan (10. January 2016),Feed Me x33 (20. December 2015),foiderbua (19. October 2015),kanita (12. February 2016),midnighter (26. October 2015),Mikyo (1. December 2015),msemi99 (27. November 2015),mytamorph (6. December 2015),okzide (20. October 2015),prinzvegeta (30. October 2015),rinnegan93 (17. November 2016),Sandy7580 (19. November 2015),Taktix (2. November 2015),TheOne0815 (30. October 2015),tokyodrift (26. October 2015),Tschu23 (19. October 2015),warhammerx (29. November 2015),xhellsingx (21. October 2016),XxXYurrippeXxX (19. October 2015),xZodiac (25. March 2016)

Stichworte

Lesezeichen

Berechtigungen

  • Neue Themen erstellen: Nein
  • Themen beantworten: Nein
  • Anhänge hochladen: Nein
  • Beiträge bearbeiten: Nein
  •  

1 2 3 4 5 6 7 8 9 10 11 12 13 14 15 16 17 18 19 20 21 22 23 24 25 26 27 28 29 30 31 32 33 34 35 36 37 38 39 40 41 42 43 44 45 46 47 48 49 50 51 52 53 54 55 56 57 58 59 60 61 62 63 64 65 66 67 68 69 70 71 72 73 74 75 76 77 78 79 80 81 82 83 84 85 86 87 88 89 90 91 92 93 94 95 96 97 98 99 100 101 102 103 104 105 106 107 108 109 110 111 112 113 114 115 116 117 118 119 120 121 122 123 124 125 126 127 128 129 130 131 132 133 134 135 136 137 138 139 140 141 142 143 144 145 146 147 148 149 150 151 152 153 154 155 156 157 158