Ergebnis 1 bis 1 von 1

Thema: Tokyo Ghoul: Pinto [Jap-Dub][Ger-Sub][720p/1080p][BluRay] - AnimeSubways

Dieser Thread wurde noch nicht bewertet. Bewerte ihn doch, wenn er dir gefällt!
  1. #1
    Kami-sama Avatar von galudo
    Registriert seit
    Mar 2015
    Beiträge
    1.369
    Punkte
    25.903
    Errungenschaften:
    TomodachisTagger ProfiHyperaktivSenpaiGang Leader

    Tokyo Ghoul: Pinto [Jap-Dub][Ger-Sub][720p/1080p][BluRay] - AnimeSubways

    Tokyo Ghoul: Pinto
    東京喰種 【PINTO】
    Tokyo Ghoul OVA



    Kurzbeschreibung
    Diese OVA ist unzensiert und befasst sich mit Tsukiyama und Chie Hori („Little Mouse“) und deren Aufeinandertreffen.
    „Little Mouse“ wird von ihren Mitschülern als Spinnerin abgetan, da sie die ganze Zeit über nur Bilder schießt und quasi fast keine Charakterzüge zeigt.
    Tsuiyama wird hellhörig und versucht ihr wahres Wesen (Charakter) durch Einschüchterung offenzulegen.
    Ob es ihm gelingt, könnt ihr in dieser alternativen Geschichte sehen!
    Format: MP4
    Sprache: Japanisch
    Untertitel: Deutsch
    Genre: Horror, Action, Drama, Fantasy, Krimi, Mystery, Männlich, Psychodrama, Volljährig
    Größe bei 720p: 370 MB
    Größe bei 1080p: 1,04 GB
    Dauer: ~ 24 Minuten
    Jahr: 2015
    Video: 720p & 1080p
    Source: BluRay
    Subgroup / Releasegroup: AnimeSubways

    Hoster: Share-Online | Uploaded
    Passwort: siehe unten


    Datei-Info
    MediaInfo
    720p
    Code:
    General
    Complete name                  : Toyko Ghoul OVA - Pinto.mp4
    Format                         : MPEG-4
    Format profile                 : Base Media
    Codec ID                       : isom
    File size                      : 371 MiB
    Duration                       : 24mn 18s
    Overall bit rate mode          : Variable
    Overall bit rate               : 2 133 Kbps
    Writing application            : Lavf56.40.101
    
    Video
    ID                             : 1
    Format                         : AVC
    Format/Info                    : Advanced Video Codec
    Format profile                 : [email protected]
    Format settings, CABAC         : Yes
    Format settings, ReFrames      : 5 frames
    Codec ID                       : avc1
    Codec ID/Info                  : Advanced Video Coding
    Duration                       : 24mn 18s
    Bit rate                       : 2 000 Kbps
    Width                          : 1 280 pixels
    Height                         : 720 pixels
    Display aspect ratio           : 16:9
    Frame rate mode                : Constant
    Frame rate                     : 23.976 fps
    Color space                    : YUV
    Chroma subsampling             : 4:2:0
    Bit depth                      : 8 bits
    Scan type                      : Progressive
    Bits/(Pixel*Frame)             : 0.091
    Stream size                    : 348 MiB (94%)
    Writing library                : x264 core 148 r2638 7599210
    Encoding settings              : cabac=1 / ref=5 / deblock=1:0:0 / analyse=0x3:0x113 / me=umh / subme=8 / psy=1 / psy_rd=1.00:0.00 / mixed_ref=1 / me_range=8 / chroma_me=1 / trellis=1 / 8x8dct=1 / cqm=0 / deadzone=21,11 / fast_pskip=1 / chroma_qp_offset=-2 / threads=4 / lookahead_threads=1 / sliced_threads=0 / nr=0 / decimate=1 / interlaced=0 / bluray_compat=0 / constrained_intra=0 / bframes=3 / b_pyramid=2 / b_adapt=2 / b_bias=0 / direct=3 / weightb=1 / open_gop=0 / weightp=2 / keyint=240 / keyint_min=23 / scenecut=40 / intra_refresh=0 / rc_lookahead=50 / rc=2pass / mbtree=1 / bitrate=2000 / ratetol=1.0 / qcomp=0.60 / qpmin=0 / qpmax=69 / qpstep=4 / cplxblur=20.0 / qblur=0.5 / vbv_maxrate=3000 / vbv_bufsize=8000 / nal_hrd=none / filler=0 / ip_ratio=1.40 / aq=1:1.00
    
    Audio
    ID                             : 2
    Format                         : AAC
    Format/Info                    : Advanced Audio Codec
    Format profile                 : LC
    Codec ID                       : 40
    Duration                       : 24mn 18s
    Duration_LastFrame             : -21ms
    Bit rate mode                  : Variable
    Bit rate                       : 128 Kbps
    Maximum bit rate               : 3 000 Kbps
    Channel(s)                     : 2 channels
    Channel positions              : Front: L R
    Sampling rate                  : 44.1 KHz
    Compression mode               : Lossy
    Stream size                    : 22.2 MiB (6%)
    1080p
    Code:
    General
    Complete name                  : Toyko Ghoul OVA - Pinto [1080p].mp4
    Format                         : MPEG-4
    Format profile                 : Base Media
    Codec ID                       : isom
    File size                      : 1.05 GiB
    Duration                       : 24mn 18s
    Overall bit rate mode          : Variable
    Overall bit rate               : 6 178 Kbps
    Writing application            : Lavf56.40.101
    
    Video
    ID                             : 1
    Format                         : AVC
    Format/Info                    : Advanced Video Codec
    Format profile                 : [email protected]
    Format settings, CABAC         : Yes
    Format settings, ReFrames      : 5 frames
    Codec ID                       : avc1
    Codec ID/Info                  : Advanced Video Coding
    Duration                       : 24mn 18s
    Bit rate                       : 6 000 Kbps
    Width                          : 1 920 pixels
    Height                         : 1 080 pixels
    Display aspect ratio           : 16:9
    Frame rate mode                : Constant
    Frame rate                     : 23.976 fps
    Color space                    : YUV
    Chroma subsampling             : 4:2:0
    Bit depth                      : 8 bits
    Scan type                      : Progressive
    Bits/(Pixel*Frame)             : 0.121
    Stream size                    : 1.02 GiB (97%)
    Writing library                : x264 core 148 r2638 7599210
    Encoding settings              : cabac=1 / ref=5 / deblock=1:0:0 / analyse=0x3:0x113 / me=umh / subme=8 / psy=1 / psy_rd=1.00:0.00 / mixed_ref=1 / me_range=8 / chroma_me=1 / trellis=1 / 8x8dct=1 / cqm=0 / deadzone=21,11 / fast_pskip=1 / chroma_qp_offset=-2 / threads=4 / lookahead_threads=1 / sliced_threads=0 / nr=0 / decimate=1 / interlaced=0 / bluray_compat=0 / constrained_intra=0 / bframes=3 / b_pyramid=2 / b_adapt=2 / b_bias=0 / direct=3 / weightb=1 / open_gop=0 / weightp=2 / keyint=240 / keyint_min=23 / scenecut=40 / intra_refresh=0 / rc_lookahead=50 / rc=2pass / mbtree=1 / bitrate=6000 / ratetol=1.0 / qcomp=0.60 / qpmin=0 / qpmax=69 / qpstep=4 / cplxblur=20.0 / qblur=0.5 / vbv_maxrate=9000 / vbv_bufsize=24000 / nal_hrd=none / filler=0 / ip_ratio=1.40 / aq=1:1.00
    
    Audio
    ID                             : 2
    Format                         : AAC
    Format/Info                    : Advanced Audio Codec
    Format profile                 : LC
    Codec ID                       : 40
    Duration                       : 24mn 18s
    Duration_LastFrame             : -21ms
    Bit rate mode                  : Variable
    Bit rate                       : 152 Kbps
    Maximum bit rate               : 9 000 Kbps
    Channel(s)                     : 2 channels
    Channel positions              : Front: L R
    Sampling rate                  : 44.1 KHz
    Compression mode               : Lossy
    Stream size                    : 26.4 MiB (2%)


    OVA 01 / 01 online

    || Download & Passwort ||


    Geschützter Bereich - Bedanke dich beim Poster, um den Bereich sehen zu können
    Hier erfährst Du wie Du Dich bedanken kannst oder werde jetzt Premium Mitglied ab einer Spende von 5€ und erhalte sofortigen Zugriff auf den Downloadbereich!

    Weiteres von Tokyo Ghoul:
    [Links sind nur für registrierte und aktivierte Nutzer sichtbar. Klicke hier um dich zu registrieren.]
    [Links sind nur für registrierte und aktivierte Nutzer sichtbar. Klicke hier um dich zu registrieren.]
    [Links sind nur für registrierte und aktivierte Nutzer sichtbar. Klicke hier um dich zu registrieren.]
    [Links sind nur für registrierte und aktivierte Nutzer sichtbar. Klicke hier um dich zu registrieren.]

    Geändert von galudo (12. October 2016 um 18:41 Uhr)
    SUPPORT UND REUP ANFRAGEN NUR >> [Links sind nur für registrierte und aktivierte Nutzer sichtbar. Klicke hier um dich zu registrieren.] <<
    Bitte IMMER den Thread-Link mitschicken.

  2. 85 Benutzer sagen Danke:

    Anzeigen

    Akulti (13. January 2016),Alucard1412 (4. February 2016),assa (20. May 2016),Asuka Langley (20. March 2016),Besen 48 (22. January 2016),bloodyfloh (7. January 2016),Callisto (8. January 2016),carollatranny (23. July 2016),coolZER0 (29. January 2016),CrystalBT (7. January 2016),D15c05 (24. February 2016),daemons (26. January 2016),deofration (11. February 2016),DiableSanji (1. August 2016),doN1337 (14. January 2016),Eight (6. March 2016),EniMan (10. January 2016),eraz (7. January 2016),exterminus (7. January 2016),farmerjoe (7. January 2016),Feed Me x33 (11. April 2016),foiderbua (7. January 2016),Gebbi (24. February 2016),Geisterhaendler (7. January 2016),Ghostraven (7. January 2016),h3h3j0 (7. January 2016),hausl (9. January 2016),Hixx (8. January 2016),ikkyyy (20. August 2016),InSaNe.CodeZ (7. January 2016),intelatominside (20. January 2016),Jack (24. January 2016),Juckz (7. January 2016),kadaj93 (7. January 2016),Kaldo (7. January 2016),Kanade Chan (21. April 2016),kanita (12. February 2016),knanime (7. April 2016),KuraikoSayo (24. January 2016),La-Jumper (11. June 2016),Linpos (6. March 2016),Loki92 (7. January 2016),Magicmanx (8. January 2016),manuel4193 (8. January 2016),mar3el (24. June 2016),meins-ag (18. January 2016),Meistermagier (17. January 2016),Merkartor (10. January 2016),michael187 (7. January 2016),midnighter (20. January 2016),mrfreeman (18. June 2016),msemi99 (25. January 2016),MViperC (7. January 2016),NeefBenriya (16. June 2016),npmusiQ (7. January 2016),ogc1 (26. March 2016),Pappkamerad (7. January 2016),passi (7. January 2016),prinzvegeta (14. February 2016),ProHitman47 (17. May 2016),Regi (5. May 2016),Rena (22. January 2016),rinnegan93 (17. November 2016),Ronae (7. January 2016),Roxas-chan (22. January 2016),Sandy7580 (7. January 2016),Scorch (22. February 2016),Shi No Ryu (7. January 2016),Shirayah (29. January 2016),Simon Jack (5. July 2016),SONNYxq (8. January 2016),ssj3shad (7. January 2016),Suigetsu (7. January 2016),Tabuadelo (27. January 2016),Tekk (7. January 2016),Tetriii (7. January 2016),Tschu23 (7. January 2016),ultrasn0w (16. March 2016),videoseven (30. April 2016),Windwusel (14. January 2016),xhellsingx (21. October 2016),xZodiac (25. March 2016),Yuki+ (18. April 2016),Zapzerap (6. March 2016),Zeigerful (21. March 2016)

Stichworte

Lesezeichen

Berechtigungen

  • Neue Themen erstellen: Nein
  • Themen beantworten: Nein
  • Anhänge hochladen: Nein
  • Beiträge bearbeiten: Nein
  •  

1 2 3 4 5 6 7 8 9 10 11 12 13 14 15 16 17 18 19 20 21 22 23 24 25 26 27 28 29 30 31 32 33 34 35 36 37 38 39 40 41 42 43 44 45 46 47 48 49 50 51 52 53 54 55 56 57 58 59 60 61 62 63 64 65 66 67 68 69 70 71 72 73 74 75 76 77 78 79 80 81 82 83 84 85 86 87 88 89 90 91 92 93 94 95 96 97 98 99 100 101 102 103 104 105 106 107 108 109 110 111 112 113 114 115 116 117 118 119 120 121 122 123 124 125 126 127 128 129 130 131 132 133 134 135 136 137 138 139 140 141 142 143 144 145 146 147 148 149 150 151 152 153 154 155 156 157 158