Ergebnis 1 bis 1 von 1

Thema: Tokyo Mew Mew [Jap-Dub][Ger-Sub][480p][DVDRip]-MGS

Dieser Thread wurde noch nicht bewertet. Bewerte ihn doch, wenn er dir gefällt!
  1. #1
    United we Stand Avatar von 00Ryuji00
    Registriert seit
    Oct 2012
    Beiträge
    3.902
    Punkte
    100.092
    Errungenschaften:
    TomodachisGang LeaderHikikomoriTagger Amateur50000 Erfahrungspunkte

    Tokyo Mew Mew [Jap-Dub][Ger-Sub][480p][DVDRip]-MGS


    Tokyo Mew Mew
    東京ミュウミュウ
    Mew Mew Power
    tokyo myu myu






    Kurzbeschreibung:
    Zitat Zitat von AniSearch.com
    Auf dem Heimweg von einem Date mit ihrem Schwarm Masaya Aoyama trifft Ichigo Momomiya auf 4 Mädchen in ihrem Alter. Bei einem Erdbeben verschmelzen die 5 auf seltsame Weise mit Genen bedrohter Tierarten. Nach diesem Unfall hat Ichigo die Fähigkeit einer Iriomote-Wildkatze. Im rosa Kampfdress und mit Katzenohren ausgestattet, muss sie fortan gegen Chimären (von Alien-Parasiten befallene Tiere) antreten. Mit ihren 4 Mitstreiterinnen ist sie für die Sicherheit der Erde verantwortlich…


    Spieldauer: 25min
    Genre: Romantische Komödie
    Nebengenres: Abenteuer, Action, Drama, Fantasy, Kinder, Komödie, Magical Girl, Romanze, Weiblich
    Jahr: 2002
    Sprache: Japanisch
    Untertitel: Deutsch
    Größe pro Folge: ~245 MiB
    Episodenanzahl: 52/52
    Format: MP4
    Auflösung: 480p (4:3)
    Videocodec: x264 (AVC)
    Audiocodec: AAC
    Releasegruppe: MGS
    Hoster: Share-Online, Uploaded


    MediaInfo
    Code:
    
    Format                                   : MPEG-4
    Format profile                           : Base Media
    Codec ID                                 : isom
    File size                                : 245 MiB
    Duration                                 : 24mn 22s
    Overall bit rate mode                    : Variable
    Overall bit rate                         : 1 407 Kbps
    Encoded date                             : UTC 2012-04-15 20:33:17
    Tagged date                              : UTC 2012-04-15 20:33:17
    
    Video
    ID                                       : 1
    Format                                   : AVC
    Format/Info                              : Advanced Video Codec
    Format profile                           : [email protected]
    Format settings, CABAC                   : Yes
    Format settings, ReFrames                : 3 frames
    Codec ID                                 : avc1
    Codec ID/Info                            : Advanced Video Coding
    Duration                                 : 24mn 22s
    Bit rate                                 : 1 276 Kbps
    Maximum bit rate                         : 5 302 Kbps
    Width                                    : 640 pixels
    Height                                   : 480 pixels
    Display aspect ratio                     : 4:3
    Frame rate mode                          : Constant
    Frame rate                               : 23.952 fps
    Color space                              : YUV
    Chroma subsampling                       : 4:2:0
    Bit depth                                : 8 bits
    Scan type                                : Progressive
    Bits/(Pixel*Frame)                       : 0.173
    Stream size                              : 222 MiB (91%)
    Writing library                          : x264 core 68 r1183M f21daff
    Encoding settings                        : cabac=1 / ref=3 / deblock=1:1:1 / analyse=0x3:0x133 / me=umh / subme=7 / psy_rd=1.0:0.0 / mixed_ref=1 / me_range=16 / chroma_me=1 / trellis=1 / 8x8dct=1 / cqm=0 / deadzone=21,11 / chroma_qp_offset=-4 / threads=12 / nr=0 / decimate=1 / mbaff=0 / bframes=3 / b_pyramid=1 / b_adapt=2 / b_bias=0 / direct=3 / wpredb=1 / keyint=250 / keyint_min=25 / scenecut=40 / rc=2pass / bitrate=1276 / ratetol=1.0 / qcomp=0.60 / qpmin=10 / qpmax=51 / qpstep=4 / cplxblur=20.0 / qblur=0.5 / ip_ratio=1.40 / pb_ratio=1.30 / aq=0
    Encoded date                             : UTC 2012-04-15 20:20:07
    Tagged date                              : UTC 2012-04-15 20:33:41
    
    Audio
    ID                                       : 2
    Format                                   : AAC
    Format/Info                              : Advanced Audio Codec
    Format profile                           : HE-AAC / LC
    Codec ID                                 : 40
    Duration                                 : 24mn 22s
    Bit rate mode                            : Variable
    Bit rate                                 : 128 Kbps
    Maximum bit rate                         : 148 Kbps
    Channel(s)                               : 2 channels
    Channel positions                        : Front: L R
    Sampling rate                            : 48.0 KHz / 24.0 KHz
    Compression mode                         : Lossy
    Stream size                              : 22.3 MiB (9%)
    Encoded date                             : UTC 2012-04-15 20:33:40
    Tagged date                              : UTC 2012-04-15 20:33:41
    
    






    Geschützter Bereich - Bedanke dich beim Poster, um den Bereich sehen zu können
    Hier erfährst Du wie Du Dich bedanken kannst oder werde jetzt Premium Mitglied ab einer Spende von 5€ und erhalte sofortigen Zugriff auf den Downloadbereich!



    [Links sind nur für registrierte und aktivierte Nutzer sichtbar. Klicke hier um dich zu registrieren.]
    Geändert von so1k (12. October 2016 um 20:31 Uhr)
    !!!Alle Anliegen bezüglich Uploads werden nur mit direktem Threadlink zum Angebot bearbeitet!!!

    Re-Uploadanfragen nur per PN - Ihr könnt mir auch Listen schicken

    Re-Uploads folgen nach Anfrage meist am Wochenende

    [Links sind nur für registrierte und aktivierte Nutzer sichtbar. Klicke hier um dich zu registrieren.] | [Links sind nur für registrierte und aktivierte Nutzer sichtbar. Klicke hier um dich zu registrieren.] | >[Links sind nur für registrierte und aktivierte Nutzer sichtbar. Klicke hier um dich zu registrieren.]<
    [Links sind nur für registrierte und aktivierte Nutzer sichtbar. Klicke hier um dich zu registrieren.]

  2. 6 Benutzer sagen Danke:

    Cony (17. January 2016),midnighter (17. January 2016),niccoboss (6. November 2016),prinzvegeta (4. January 2016),Ronae (2. January 2016),ultrasn0w (9. January 2016)

Lesezeichen

Berechtigungen

  • Neue Themen erstellen: Nein
  • Themen beantworten: Nein
  • Anhänge hochladen: Nein
  • Beiträge bearbeiten: Nein
  •  

1 2 3 4 5 6 7 8 9 10 11 12 13 14 15 16 17 18 19 20 21 22 23 24 25 26 27 28 29 30 31 32 33 34 35 36 37 38 39 40 41 42 43 44 45 46 47 48 49 50 51 52 53 54 55 56 57 58 59 60 61 62 63 64 65 66 67 68 69 70 71 72 73 74 75 76 77 78 79 80 81 82 83 84 85 86 87 88 89 90 91 92 93 94 95 96 97 98 99 100 101 102 103 104 105 106 107 108 109 110 111 112 113 114 115 116 117 118 119 120 121 122 123 124 125 126 127 128 129 130 131 132 133 134 135 136 137 138 139 140 141 142 143 144 145 146 147 148 149 150 151 152 153 154 155 156 157 158