Ergebnis 1 bis 2 von 2

Thema: Tsuyokiss Cool x Sweet [Jap-Dub][Ger-Sub][480p][DVDRip]

Dieser Thread wurde noch nicht bewertet. Bewerte ihn doch, wenn er dir gefällt!
  1. #1
    Uploader Avatar von Filbo11
    Registriert seit
    Jan 2015
    Beiträge
    926
    Punkte
    17.174
    Errungenschaften:
    TomodachisErste Gruppe1 Jahr registriertCreated Album picturesTagger First Class

    Tsuyokiss Cool x Sweet [Jap-Dub][Ger-Sub][480p][DVDRip]

    Tsuyokiss Cool x Sweet
    つよきす Cool x Sweet
    Tsuyokisu




    Handlung

    Sunao Konoe wechselt auf eine neue Oberschule. Seit ihrer Kindheit träumt sie davon, auf einer Theaterbühne zu stehen - deshalb versucht sie sofort, auch hier einen Theaterclub ins Leben zu rufen.
    Dabei stößt sie jedoch auf allerlei Probleme, hauptsächlich wegen der arroganten "Prinzessin" Kiriya Erika, Tochter aus reichem Haus und unangefochtene Chefin des Schülerrates, der die Einrichtung des Clubs zu genehmigen hätte und deren "Hofstaat", darunter auch die Schwertträgerin Kurogane Otome, ihres Zeichens Überwacherin der Schuldisziplin. Und zu ihrer Überraschung trifft Sunao im Kreis dieses "Hofstaats" auch ihre Sandkastenliebe Tsushima Leo wieder - den Einzigen, der ihre Theater-Pläne bereits in der Grundschule unterstützt hatte, der sie aber gleichzeitig mit dem Spitznamen "Rettich" bezeichnet hatte, ein Synonym für "miserabler Schauspieler".


    Format: mp4
    Dauer: ca. 24 min
    Größe: ca. 270-350 MB
    Episodenanzahl: 12
    Sprache: Japanisch
    Untertitel: Deutsch
    Group: [NaSu]
    Hoster: Uploaded.net & Share-Online.biz
    kein PW


    Screenshots & MediaInfo

    Spoiler
    [Links sind nur für registrierte und aktivierte Nutzer sichtbar. Klicke hier um dich zu registrieren.]
    [Links sind nur für registrierte und aktivierte Nutzer sichtbar. Klicke hier um dich zu registrieren.]

    Code:
    General
    Complete name               : [NaSu] Tsuyokiss Cool x Sweet\[NaSu] Tsuyokiss 01 [864x480 h264 ger.sub][A04204ED].mp4
    Format                      : MPEG-4
    Format profile              : Base Media / Version 2
    Codec ID                    : mp42
    File size                   : 317 MiB
    Duration                    : 24mn 36s
    Overall bit rate mode       : Variable
    Overall bit rate            : 1 802 Kbps
    Encoded date                : UTC 2012-05-30 18:46:23
    Tagged date                 : UTC 2012-05-30 18:46:23
    
    Video
    ID                          : 1
    Format                      : AVC
    Format/Info                 : Advanced Video Codec
    Format profile              : [email protected]
    Format settings, CABAC      : Yes
    Format settings, ReFrames   : 5 frames
    Codec ID                    : avc1
    Codec ID/Info               : Advanced Video Coding
    Duration                    : 24mn 36s
    Bit rate                    : 1 638 Kbps
    Width                       : 864 pixels
    Height                      : 480 pixels
    Display aspect ratio        : 16:9
    Frame rate mode             : Constant
    Frame rate                  : 24.000 fps
    Standard                    : PAL
    Color space                 : YUV
    Chroma subsampling          : 4:2:0
    Bit depth                   : 8 bits
    Scan type                   : Progressive
    Bits/(Pixel*Frame)          : 0.165
    Stream size                 : 288 MiB (91%)
    Language                    : English
    Encoded date                : UTC 2012-05-30 18:46:23
    Tagged date                 : UTC 2012-05-30 18:46:23
    Color primaries             : BT.709
    Transfer characteristics    : BT.709
    Matrix coefficients         : BT.709
    Color range                 : Limited
    
    Audio
    ID                          : 2
    Format                      : AAC
    Format/Info                 : Advanced Audio Codec
    Format profile              : LC
    Codec ID                    : 40
    Duration                    : 24mn 36s
    Bit rate mode               : Variable
    Bit rate                    : 160 Kbps
    Maximum bit rate            : 576 Kbps
    Channel(s)                  : 2 channels
    Channel positions           : Front: L R
    Sampling rate               : 48.0 KHz
    Compression mode            : Lossy
    Stream size                 : 28.2 MiB (9%)
    Language                    : English
    Encoded date                : UTC 2012-05-30 18:46:23
    Tagged date                 : UTC 2012-05-30 18:46:23



    Download
    Geschützter Bereich - Bedanke dich beim Poster, um den Bereich sehen zu können
    Hier erfährst Du wie Du Dich bedanken kannst oder werde jetzt Premium Mitglied ab einer Spende von 5€ und erhalte sofortigen Zugriff auf den Downloadbereich!



    Geändert von Filbo11 (12. April 2016 um 10:20 Uhr) Grund: Share-Online.biz hinzugefügt

    [Links sind nur für registrierte und aktivierte Nutzer sichtbar. Klicke hier um dich zu registrieren.]

    Ich wäre allen sehr dankbar, die mir gravierende Fehler in meinen Releases per PN melden

  2. 10 Benutzer sagen Danke:

    Ace360 (1. October 2015),Akio (17. November 2015),Bloodywaffe (24. November 2015),doN1337 (11. January 2016),Esyldra (4. April 2015),exterminus (4. April 2015),midnighter (4. April 2015),Miles360 (5. April 2015),Smasher25 (15. September 2015),SnowCat (12. April 2015)

  3. #2
    Uploader Avatar von Filbo11
    Registriert seit
    Jan 2015
    Beiträge
    926
    Punkte
    17.174
    Errungenschaften:
    TomodachisErste Gruppe1 Jahr registriertCreated Album picturesTagger First Class

    AW: Tsuyokiss Cool x Sweet [Jap-Dub][Ger-Sub][480p][DVDRip]

    Update: share-online.biz hinzugefügt

    [Links sind nur für registrierte und aktivierte Nutzer sichtbar. Klicke hier um dich zu registrieren.]

    Ich wäre allen sehr dankbar, die mir gravierende Fehler in meinen Releases per PN melden

  4. 1 Benutzer sagt Danke:

    SnowCat (12. April 2015)

Stichworte

Lesezeichen

Berechtigungen

  • Neue Themen erstellen: Nein
  • Themen beantworten: Nein
  • Anhänge hochladen: Nein
  • Beiträge bearbeiten: Nein
  •  

1 2 3 4 5 6 7 8 9 10 11 12 13 14 15 16 17 18 19 20 21 22 23 24 25 26 27 28 29 30 31 32 33 34 35 36 37 38 39 40 41 42 43 44 45 46 47 48 49 50 51 52 53 54 55 56 57 58 59 60 61 62 63 64 65 66 67 68 69 70 71 72 73 74 75 76 77 78 79 80 81 82 83 84 85 86 87 88 89 90 91 92 93 94 95 96 97 98 99 100 101 102 103 104 105 106 107 108 109 110 111 112 113 114 115 116 117 118 119 120 121 122 123 124 125 126 127 128 129 130 131 132 133 134 135 136 137 138 139 140 141 142 143 144 145 146 147 148 149 150 151 152 153 154 155 156 157 158