Ergebnis 1 bis 2 von 2

Thema: UFO Princess Valkyrie: Juunigatsu no Yasoukyoku (S2) + OVA [Jap-Dub][Ger-Sub][480p][DVDRip] - C-Subs

Dieser Thread wurde noch nicht bewertet. Bewerte ihn doch, wenn er dir gefällt!
  1. #1
    United we Stand Avatar von 00Ryuji00
    Registriert seit
    Oct 2012
    Beiträge
    3.896
    Punkte
    99.519
    Errungenschaften:
    TomodachisGang LeaderHikikomoriTagger Amateur50000 Erfahrungspunkte

    UFO Princess Valkyrie: Juunigatsu no Yasoukyoku (S2) + OVA [Jap-Dub][Ger-Sub][480p][DVDRip] - C-Subs


    UFO Princess Valkyrie: Juunigatsu no Yasoukyoku
    円盤皇女ワるきゅーレ 十二月の夜想曲
    UFO Ultramaiden Valkyrie 2: December Nocturne
    UFO Princess Valkyrie 2: December's Nocturne
    UFO Princess Walküre 2
    Enban Oujo Valkyrie Juunigatsu no Yasoukyoku






    Kurzbeschreibung:
    Zitat Zitat von AniSearch.com
    Valkyrie, Kazuto, Akina, Hydra und ihre Freunde sind zurück. Dieses Mal dreht es sich um den mysteriösen Schlüssel der Zeit, der zeitgleich mit seinem Erscheinen noch viele andere merkwürdige Ereignisse nach sich zieht. Alles scheint von einer gewissen Person namens "Valkyrie Ghost" auszugehen, deren Ziel es ist, Kazuto für ihre eigenen Zwecke zu entführen. Wieder einmal schließen sich die Helden gegen einen scheinbar unbesiegbaren Feind zusammen und graben dabei auch immer tiefer in der mysteriösen Vergangenheit von Valkyries Heimatplanet Valhalla.


    Spieldauer: 24min
    Genre: Romantische Komödie
    Nebengenres: Action, Ecchi, Harem, Komödie, Magical Girl, Männlich, Romanze, Sci-Fi
    Jahr: 2003
    Sprache: Japanisch
    Untertitel: Deutsch
    Größe pro Folge:
    Episodenanzahl: 12/12 + 6/6 + 2/2
    Format: mp4
    Auflösung: 480p (4:3)
    Videocodec: x264 (AVC)
    Releasegruppe: C-Subs
    Hoster: Share-Online, Uploaded


    MediaInfo
    Code:
    
    Format                                   : MPEG-4
    Format profile                           : Base Media
    Codec ID                                 : isom
    File size                                : 275 MiB
    Duration                                 : 24mn 11s
    Overall bit rate mode                    : Variable
    Overall bit rate                         : 1 589 Kbps
    Encoded date                             : UTC 2012-12-23 19:29:40
    Tagged date                              : UTC 2012-12-23 19:29:40
    
    Video
    ID                                       : 1
    Format                                   : AVC
    Format/Info                              : Advanced Video Codec
    Format profile                           : [email protected]
    Format settings, CABAC                   : Yes
    Format settings, ReFrames                : 3 frames
    Codec ID                                 : avc1
    Codec ID/Info                            : Advanced Video Coding
    Duration                                 : 24mn 11s
    Bit rate mode                            : Variable
    Bit rate                                 : 1 459 Kbps
    Maximum bit rate                         : 40.0 Mbps
    Width                                    : 640 pixels
    Height                                   : 480 pixels
    Display aspect ratio                     : 4:3
    Frame rate mode                          : Constant
    Frame rate                               : 23.976 fps
    Color space                              : YUV
    Chroma subsampling                       : 4:2:0
    Bit depth                                : 8 bits
    Scan type                                : Progressive
    Bits/(Pixel*Frame)                       : 0.198
    Stream size                              : 252 MiB (92%)
    Writing library                          : x264 core 125 r2200 999b753
    Encoding settings                        : cabac=1 / ref=4 / deblock=1:0:0 / analyse=0x3:0x133 / me=umh / subme=10 / psy=1 / psy_rd=1.00:0.00 / mixed_ref=1 / me_range=24 / chroma_me=1 / trellis=2 / 8x8dct=1 / cqm=0 / deadzone=21,11 / fast_pskip=1 / chroma_qp_offset=-2 / threads=12 / lookahead_threads=2 / sliced_threads=0 / slices=4 / nr=0 / decimate=1 / interlaced=0 / bluray_compat=0 / constrained_intra=0 / bframes=3 / b_pyramid=1 / b_adapt=2 / b_bias=0 / direct=3 / weightb=1 / open_gop=0 / weightp=0 / keyint=23 / keyint_min=1 / scenecut=40 / intra_refresh=0 / rc_lookahead=23 / rc=crf / mbtree=1 / crf=18.0 / qcomp=0.60 / qpmin=10 / qpmax=51 / qpstep=4 / vbv_maxrate=40000 / vbv_bufsize=30000 / crf_max=0.0 / nal_hrd=vbr / ip_ratio=1.40 / aq=1:1.00
    Encoded date                             : UTC 2012-12-23 19:05:43
    Tagged date                              : UTC 2012-12-23 19:29:41
    
    Audio
    ID                                       : 2
    Format                                   : AAC
    Format/Info                              : Advanced Audio Codec
    Format profile                           : HE-AAC / LC
    Codec ID                                 : 40
    Duration                                 : 24mn 11s
    Bit rate mode                            : Variable
    Bit rate                                 : 128 Kbps
    Maximum bit rate                         : 147 Kbps
    Channel count                            : 2 channels
    Channel positions                        : Front: L R
    Sampling rate                            : 44.1 KHz / 22.05 KHz
    Compression mode                         : Lossy
    Stream size                              : 22.1 MiB (8%)
    Encoded date                             : UTC 2012-12-23 19:29:41
    Tagged date                              : UTC 2012-12-23 19:29:41
    
    





    Geschützter Bereich - Bedanke dich beim Poster, um den Bereich sehen zu können
    Hier erfährst Du wie Du Dich bedanken kannst oder werde jetzt Premium Mitglied ab einer Spende von 5€ und erhalte sofortigen Zugriff auf den Downloadbereich!

    Geändert von so1k (12. August 2016 um 17:15 Uhr) Grund: Title
    !!!Alle Anliegen bezüglich Uploads werden nur mit direktem Threadlink zum Angebot bearbeitet!!!

    Re-Uploadanfragen nur per PN - Ihr könnt mir auch Listen schicken

    Re-Uploads erfolgen meist innerhalb 24h, kann aber auch bis zu 7 Tage dauern

    [Links sind nur für registrierte und aktivierte Nutzer sichtbar. Klicke hier um dich zu registrieren.] | [Links sind nur für registrierte und aktivierte Nutzer sichtbar. Klicke hier um dich zu registrieren.] | >[Links sind nur für registrierte und aktivierte Nutzer sichtbar. Klicke hier um dich zu registrieren.]<
    [Links sind nur für registrierte und aktivierte Nutzer sichtbar. Klicke hier um dich zu registrieren.]

  2. 6 Benutzer sagen Danke:

    Akio (21. October 2015),Gatti1983 (8. December 2015),midnighter (14. August 2015),Nanatzusaya (23. November 2015),prinzvegeta (3. September 2015),Rheijaa (1. March 2016)

  3. #2
    United we Stand Avatar von 00Ryuji00
    Registriert seit
    Oct 2012
    Beiträge
    3.896
    Punkte
    99.519
    Errungenschaften:
    TomodachisGang LeaderHikikomoriTagger Amateur50000 Erfahrungspunkte

    AW: UFO Princess Valkyrie: Juunigatsu no Yasoukyoku (S2) + OVA [Jap-Dub][Ger-Sub][480p][DVDRip]

    Update: Dateien auf Wunsch wieder online.
    !!!Alle Anliegen bezüglich Uploads werden nur mit direktem Threadlink zum Angebot bearbeitet!!!

    Re-Uploadanfragen nur per PN - Ihr könnt mir auch Listen schicken

    Re-Uploads erfolgen meist innerhalb 24h, kann aber auch bis zu 7 Tage dauern

    [Links sind nur für registrierte und aktivierte Nutzer sichtbar. Klicke hier um dich zu registrieren.] | [Links sind nur für registrierte und aktivierte Nutzer sichtbar. Klicke hier um dich zu registrieren.] | >[Links sind nur für registrierte und aktivierte Nutzer sichtbar. Klicke hier um dich zu registrieren.]<
    [Links sind nur für registrierte und aktivierte Nutzer sichtbar. Klicke hier um dich zu registrieren.]

Lesezeichen

Berechtigungen

  • Neue Themen erstellen: Nein
  • Themen beantworten: Nein
  • Anhänge hochladen: Nein
  • Beiträge bearbeiten: Nein
  •  

1 2 3 4 5 6 7 8 9 10 11 12 13 14 15 16 17 18 19 20 21 22 23 24 25 26 27 28 29 30 31 32 33 34 35 36 37 38 39 40 41 42 43 44 45 46 47 48 49 50 51 52 53 54 55 56 57 58 59 60 61 62 63 64 65 66 67 68 69 70 71 72 73 74 75 76 77 78 79 80 81 82 83 84 85 86 87 88 89 90 91 92 93 94 95 96 97 98 99 100 101 102 103 104 105 106 107 108 109 110 111 112 113 114 115 116 117 118 119 120 121 122 123 124 125 126 127 128 129 130 131 132 133 134 135 136 137 138 139 140 141 142 143 144 145 146 147 148 149 150 151 152 153 154 155 156 157 158