Ergebnis 1 bis 3 von 3

Thema: Umineko no Naku Koro ni [Jap-Dub][Ger-Sub][720p][HDTV]

Dieser Thread wurde noch nicht bewertet. Bewerte ihn doch, wenn er dir gefällt!
  1. #1
    United we Stand Avatar von 00Ryuji00
    Registriert seit
    Oct 2012
    Beiträge
    3.902
    Punkte
    100.092
    Errungenschaften:
    TomodachisGang LeaderHikikomoriTagger Amateur50000 Erfahrungspunkte

    Umineko no Naku Koro ni [Jap-Dub][Ger-Sub][720p][HDTV]


    Umineko no Naku Koro ni

    うみねこのなく頃に
    Umineko - When They Cry
    When Seagulls Cry, When The Seagulls Cry
    UnNKn, Uraneko, When They Cry 3






    Kurzbeschreibung:
    Zitat Zitat von AniSearch.com
    Die Exposition von "Umineko no Naku Koro ni" ähnelt dem Kriminalroman Zehn kleine Negerlein von Agatha Christie. Der im Sterben liegende Kinzo Ushiromiya ist Besitzer der abgelegenen Insel Rokkenjima und hat acht Familienmitglieder zu seinem Wohnsitz bestellt. Drei weitere Verwandte befinden sich bereits dort, außerdem leben einige Angestellte und Kinzos Leibarzt auf dem Anwesen. Die Besucher diskutieren bereits vorab über die Aufteilung von Kinzos umfangreichen Nachlass. Doch nachdem der Taifun zugeschlagen hat und keiner mehr die Insel verlassen kann, beginnen mysteriöse Mordfälle die Reihen der potentiellen Erben zu lichten...


    Spieldauer: 25min
    Genre: Horror
    Nebengenres: Fantasy, Horror, Mystery, Männlich, Psychodrama, Thriller, Übermäßige Gewaltdarstellung
    Jahr: 2009
    Sprache: Japanisch
    Untertitel: Deutsch
    Größe pro Folge:
    Episodenanzahl: 26/26
    Format: mp4
    Auflösung: 720p (16:9)
    Videocodec: x264 (AVC)
    Releasegruppe: Chinurarete-Subs
    Hoster: Share-Online, Uploaded


    MediaInfo
    Code:
    
    Format                                   : MPEG-4
    Format profile                           : Base Media
    Codec ID                                 : isom
    File size                                : 425 MiB
    Duration                                 : 23mn 15s
    Overall bit rate mode                    : Variable
    Overall bit rate                         : 2 556 Kbps
    Encoded date                             : UTC 2012-10-16 02:47:15
    Tagged date                              : UTC 2012-10-16 02:47:15
    Writing application                      : Yamb 2.1.0.0 [http://yamb.unite-video.com]
    
    Video
    ID                                       : 1
    Format                                   : AVC
    Format/Info                              : Advanced Video Codec
    Format profile                           : [email protected]
    Format settings, CABAC                   : Yes
    Format settings, ReFrames                : 4 frames
    Codec ID                                 : avc1
    Codec ID/Info                            : Advanced Video Coding
    Duration                                 : 23mn 14s
    Bit rate                                 : 2 235 Kbps
    Maximum bit rate                         : 25.2 Mbps
    Width                                    : 1 280 pixels
    Height                                   : 720 pixels
    Display aspect ratio                     : 16:9
    Frame rate mode                          : Constant
    Frame rate                               : 23.976 fps
    Color space                              : YUV
    Chroma subsampling                       : 4:2:0
    Bit depth                                : 8 bits
    Scan type                                : Progressive
    Bits/(Pixel*Frame)                       : 0.101
    Stream size                              : 372 MiB (87%)
    Writing library                          : x264 core 125 r2200+677M 3a754e7
    Encoding settings                        : cabac=1 / ref=3 / deblock=1:0:0 / analyse=0x3:0x113 / me=umh / subme=7 / psy=1 / fade_compensate=0.00 / psy_rd=1.00:0.00 / mixed_ref=1 / me_range=16 / chroma_me=1 / trellis=1 / 8x8dct=1 / cqm=0 / deadzone=21,11 / fast_pskip=1 / chroma_qp_offset=-2 / threads=6 / lookahead_threads=1 / sliced_threads=0 / nr=0 / decimate=1 / interlaced=0 / bluray_compat=0 / constrained_intra=0 / fgo=0 / bframes=3 / b_pyramid=2 / b_adapt=1 / b_bias=0 / direct=1 / weightb=1 / open_gop=0 / weightp=2 / keyint=240 / keyint_min=23 / scenecut=40 / intra_refresh=0 / rc=crf / mbtree=0 / crf=20.0000 / qcomp=0.60 / qpmin=0 / qpmax=69 / qpstep=4 / ip_ratio=1.40 / pb_ratio=1.30 / aq=1:1.20
    Encoded date                             : UTC 2012-10-16 02:40:39
    Tagged date                              : UTC 2012-10-16 02:47:28
    
    Audio
    ID                                       : 2
    Format                                   : AAC
    Format/Info                              : Advanced Audio Codec
    Format profile                           : LC
    Codec ID                                 : 67
    Duration                                 : 23mn 15s
    Bit rate mode                            : Variable
    Bit rate                                 : 318 Kbps
    Maximum bit rate                         : 332 Kbps
    Channel count                            : 2 channels
    Channel positions                        : Front: L R
    Sampling rate                            : 44.1 KHz
    Compression mode                         : Lossy
    Stream size                              : 52.8 MiB (12%)
    Encoded date                             : UTC 2012-10-16 02:47:27
    Tagged date                              : UTC 2012-10-16 02:47:28
    
    





    Geschützter Bereich - Bedanke dich beim Poster, um den Bereich sehen zu können
    Hier erfährst Du wie Du Dich bedanken kannst oder werde jetzt Premium Mitglied ab einer Spende von 5€ und erhalte sofortigen Zugriff auf den Downloadbereich!

    !!!Alle Anliegen bezüglich Uploads werden nur mit direktem Threadlink zum Angebot bearbeitet!!!

    Re-Uploadanfragen nur per PN - Ihr könnt mir auch Listen schicken

    Re-Uploads folgen nach Anfrage meist am Wochenende

    [Links sind nur für registrierte und aktivierte Nutzer sichtbar. Klicke hier um dich zu registrieren.] | [Links sind nur für registrierte und aktivierte Nutzer sichtbar. Klicke hier um dich zu registrieren.] | >[Links sind nur für registrierte und aktivierte Nutzer sichtbar. Klicke hier um dich zu registrieren.]<
    [Links sind nur für registrierte und aktivierte Nutzer sichtbar. Klicke hier um dich zu registrieren.]

  2. 19 Benutzer sagen Danke:

    Akio (10. November 2015),ANg3el (16. August 2016),Bi4CKY (12. August 2016),chainsaw3 (8. June 2016),Geisterhaendler (30. November 2015),Heroic (28. February 2016),Hiruja (7. September 2016),leaf-chan (28. February 2016),midnighter (12. August 2015),NLHTeddyNLH (28. February 2016),prinzvegeta (3. September 2015),Riven (18. April 2016),Stones (12. October 2015),Sylux (11. September 2015),ter_Kapitalist (26. October 2016),Tschu23 (6. December 2015),Ultraregister (12. November 2015),Windwusel (28. February 2016),xFamoussZ (26. February 2016)

  3. #2
    United we Stand Avatar von 00Ryuji00
    Registriert seit
    Oct 2012
    Beiträge
    3.902
    Punkte
    100.092
    Errungenschaften:
    TomodachisGang LeaderHikikomoriTagger Amateur50000 Erfahrungspunkte

    AW: Umineko no Naku Koro ni [Jap-Dub][Ger-Sub][720p][HDTV]

    Update: Dateien auf Wunsch wieder online.
    !!!Alle Anliegen bezüglich Uploads werden nur mit direktem Threadlink zum Angebot bearbeitet!!!

    Re-Uploadanfragen nur per PN - Ihr könnt mir auch Listen schicken

    Re-Uploads folgen nach Anfrage meist am Wochenende

    [Links sind nur für registrierte und aktivierte Nutzer sichtbar. Klicke hier um dich zu registrieren.] | [Links sind nur für registrierte und aktivierte Nutzer sichtbar. Klicke hier um dich zu registrieren.] | >[Links sind nur für registrierte und aktivierte Nutzer sichtbar. Klicke hier um dich zu registrieren.]<
    [Links sind nur für registrierte und aktivierte Nutzer sichtbar. Klicke hier um dich zu registrieren.]

  4. #3
    United we Stand Avatar von 00Ryuji00
    Registriert seit
    Oct 2012
    Beiträge
    3.902
    Punkte
    100.092
    Errungenschaften:
    TomodachisGang LeaderHikikomoriTagger Amateur50000 Erfahrungspunkte

    AW: Umineko no Naku Koro ni [Jap-Dub][Ger-Sub][720p][HDTV]

    Update: Dateien auf Wunsch wieder online.
    !!!Alle Anliegen bezüglich Uploads werden nur mit direktem Threadlink zum Angebot bearbeitet!!!

    Re-Uploadanfragen nur per PN - Ihr könnt mir auch Listen schicken

    Re-Uploads folgen nach Anfrage meist am Wochenende

    [Links sind nur für registrierte und aktivierte Nutzer sichtbar. Klicke hier um dich zu registrieren.] | [Links sind nur für registrierte und aktivierte Nutzer sichtbar. Klicke hier um dich zu registrieren.] | >[Links sind nur für registrierte und aktivierte Nutzer sichtbar. Klicke hier um dich zu registrieren.]<
    [Links sind nur für registrierte und aktivierte Nutzer sichtbar. Klicke hier um dich zu registrieren.]

Lesezeichen

Berechtigungen

  • Neue Themen erstellen: Nein
  • Themen beantworten: Nein
  • Anhänge hochladen: Nein
  • Beiträge bearbeiten: Nein
  •  

1 2 3 4 5 6 7 8 9 10 11 12 13 14 15 16 17 18 19 20 21 22 23 24 25 26 27 28 29 30 31 32 33 34 35 36 37 38 39 40 41 42 43 44 45 46 47 48 49 50 51 52 53 54 55 56 57 58 59 60 61 62 63 64 65 66 67 68 69 70 71 72 73 74 75 76 77 78 79 80 81 82 83 84 85 86 87 88 89 90 91 92 93 94 95 96 97 98 99 100 101 102 103 104 105 106 107 108 109 110 111 112 113 114 115 116 117 118 119 120 121 122 123 124 125 126 127 128 129 130 131 132 133 134 135 136 137 138 139 140 141 142 143 144 145 146 147 148 149 150 151 152 153 154 155 156 157 158