Ergebnis 1 bis 6 von 6

Thema: Urusei Yatsura + OVA [Laufend][Jap-Dub][Ger-Sub][480p/540p/720p][DVDRip/BluRay] - FA

Dieser Thread wurde noch nicht bewertet. Bewerte ihn doch, wenn er dir gefällt!
  1. #1
    United we Stand Avatar von 00Ryuji00
    Registriert seit
    Oct 2012
    Beiträge
    3.897
    Punkte
    99.519
    Errungenschaften:
    TomodachisGang LeaderHikikomoriTagger Amateur50000 Erfahrungspunkte

    Urusei Yatsura + OVA [Laufend][Jap-Dub][Ger-Sub][480p/540p/720p][DVDRip/BluRay] - FA

    Urusei Yatsura
    うる星やつら
    Those Obnoxious Aliens
    Lamu, Urusei Yatsura TV
    Lam, the Invader Girl
    Lum the Invader Girl
    Alien Musibat



    Kurzbeschreibung:
    Zitat Zitat von AniSearch.com
    Moroboshi Ataru, der größte Pechvogel aller Zeiten, wird von Invasoren ausgewählt, die Erde zu vertreten. Verliert er, so wird der Planet erobert. Ataru liegt herzlich wenig am Schicksal des Planeten und hat noch weniger Interesse daran, sein Leben aufs Spiel zu setzen. Seine Meinung ändert sich schlagartig, als er herausfindet, was er tun soll. Er muss die gutaussehende Tochter des Invasoren berühren, um die Erde zu retten. Seiner verdorbenen Persönlichkeit wegen, hätte er dies wohl auch ohne Aufforderung getan.

    Am letzten Tag vor Ablauf der gesetzten Frist motiviert Shinobu, Atarus Freundin, ihn zusätzlich mit einem Eheversprechen für den Fall, dass er die Erde retten sollte. Nachdem er es wirklich schafft und sich lauthals über seine bevorstehende Hochzeitsnacht freut, kommt es zum Missverständnis zwischen ihm und Lum. Diese versteht nämlich einen Heiratsantrag, den sie auch sofort annimmt...
    Spieldauer: ~ 26min
    Genre: Komödie
    Nebengenres: Action, Drama, Komödie, Männlich, Romanze, Sci-Fi
    Jahr: 1981
    Sprache: Japanisch
    Untertitel: Deutsch
    Größe pro Folge: ~ 200-400MB
    Episodenanzahl: 35/195 + 1/1
    Format: AVI, MP4
    Auflösung: 480p (4:3), 540p (4:3), 720p (4:3),
    Videocodec: XviD, x264 (AVC)
    Audiocodec: MP3, AAC
    Releasegruppe: Freebooter-Anime
    Hoster: Uploaded, Share-Online

    MediaInfo
    Ep. 01-15 DVD
    XviD MP3
    Code:
    Format                                   : AVI
    Format/Info                              : Audio Video Interleave
    File size                                : 250 MiB
    Duration                                 : 25mn 34s
    Overall bit rate                         : 1 367 Kbps
    Writing application                      : VirtualDubMod 1.5.10.2 (build 2542/release)
    Writing library                          : VirtualDubMod build 2542/release
    
    Video
    ID                                       : 0
    Format                                   : MPEG-4 Visual
    Format profile                           : Advanced [email protected]
    Format settings, BVOP                    : 3
    Format settings, QPel                    : Yes
    Format settings, GMC                     : No warppoints
    Format settings, Matrix                  : Default (H.263)
    Muxing mode                              : Packed bitstream
    Codec ID                                 : XVID
    Codec ID/Hint                            : XviD
    Duration                                 : 25mn 34s
    Bit rate                                 : 1 229 Kbps
    Width                                    : 640 pixels
    Height                                   : 480 pixels
    Display aspect ratio                     : 4:3
    Frame rate                               : 25.000 fps
    Color space                              : YUV
    Chroma subsampling                       : 4:2:0
    Bit depth                                : 8 bits
    Scan type                                : Progressive
    Compression mode                         : Lossy
    Bits/(Pixel*Frame)                       : 0.160
    Stream size                              : 225 MiB (90%)
    Writing library                          : XviD 1.2.1 (UTC 2008-12-04)
    
    Audio
    ID                                       : 1
    Format                                   : MPEG Audio
    Format version                           : Version 1
    Format profile                           : Layer 3
    Mode                                     : Joint stereo
    Codec ID                                 : 55
    Codec ID/Hint                            : MP3
    Duration                                 : 25mn 34s
    Bit rate mode                            : Constant
    Bit rate                                 : 128 Kbps
    Channel count                            : 2 channels
    Sampling rate                            : 44.1 KHz
    Compression mode                         : Lossy
    Stream size                              : 23.4 MiB (9%)
    Alignment                                : Aligned on interleaves
    Interleave, duration                     : 40 ms (1.00 video frame)
    Interleave, preload duration             : 522 ms
    x264 AAC
    Code:
    Format                                   : MPEG-4
    Format profile                           : Base Media
    Codec ID                                 : isom
    File size                                : 200 MiB
    Duration                                 : 25mn 34s
    Overall bit rate mode                    : Variable
    Overall bit rate                         : 1 096 Kbps
    Encoded date                             : UTC 2011-11-25 01:33:21
    Tagged date                              : UTC 2011-11-25 01:33:21
    
    Video
    ID                                       : 1
    Format                                   : AVC
    Format/Info                              : Advanced Video Codec
    Format profile                           : [email protected]
    Format settings, CABAC                   : Yes
    Format settings, ReFrames                : 16 frames
    Codec ID                                 : avc1
    Codec ID/Info                            : Advanced Video Coding
    Duration                                 : 25mn 34s
    Bit rate                                 : 964 Kbps
    Maximum bit rate                         : 3 501 Kbps
    Width                                    : 720 pixels
    Height                                   : 540 pixels
    Display aspect ratio                     : 4:3
    Frame rate mode                          : Constant
    Frame rate                               : 25.000 fps
    Color space                              : YUV
    Chroma subsampling                       : 4:2:0
    Bit depth                                : 8 bits
    Scan type                                : Progressive
    Bits/(Pixel*Frame)                       : 0.099
    Stream size                              : 176 MiB (88%)
    Writing library                          : x264 core 116 r2074 2641b9e
    Encoding settings                        : cabac=1 / ref=16 / deblock=1:1:1 / analyse=0x3:0x133 / me=umh / subme=9 / psy=1 / psy_rd=0.40:0.00 / mixed_ref=1 / me_range=16 / chroma_me=1 / trellis=2 / 8x8dct=1 / cqm=0 / deadzone=21,11 / fast_pskip=1 / chroma_qp_offset=-2 / threads=12 / sliced_threads=0 / nr=0 / decimate=1 / interlaced=0 / bluray_compat=0 / constrained_intra=0 / bframes=5 / b_pyramid=2 / b_adapt=2 / b_bias=0 / direct=3 / weightb=1 / open_gop=0 / weightp=2 / keyint=250 / keyint_min=25 / scenecut=40 / intra_refresh=0 / rc_lookahead=60 / rc=2pass / mbtree=1 / bitrate=964 / ratetol=1.0 / qcomp=0.60 / qpmin=10 / qpmax=51 / qpstep=4 / cplxblur=20.0 / qblur=0.5 / vbv_maxrate=24000 / vbv_bufsize=24000 / nal_hrd=none / ip_ratio=1.40 / aq=1:0.60
    Encoded date                             : UTC 2011-11-25 01:33:21
    Tagged date                              : UTC 2011-11-25 01:33:23
    
    Audio
    ID                                       : 2
    Format                                   : AAC
    Format/Info                              : Advanced Audio Codec
    Format profile                           : LC
    Codec ID                                 : 40
    Duration                                 : 25mn 34s
    Bit rate mode                            : Variable
    Bit rate                                 : 128 Kbps
    Maximum bit rate                         : 149 Kbps
    Channel count                            : 2 channels
    Channel positions                        : Front: L R
    Sampling rate                            : 44.1 KHz
    Compression mode                         : Lossy
    Stream size                              : 23.4 MiB (12%)
    Encoded date                             : UTC 2011-11-25 01:33:23
    Tagged date                              : UTC 2011-11-25 01:33:23
    
    Ep. 16 u.f. BD
    XviD MP3
    Code:
    Format                                   : AVI
    Format/Info                              : Audio Video Interleave
    File size                                : 250 MiB
    Duration                                 : 25mn 38s
    Overall bit rate                         : 1 364 Kbps
    Writing application                      : VirtualDubMod 1.5.4.1 (build 2066/release)
    Writing library                          : VirtualDubMod build 2066/release
    
    Video
    ID                                       : 0
    Format                                   : MPEG-4 Visual
    Format profile                           : Advanced [email protected]
    Format settings, BVOP                    : 3
    Format settings, QPel                    : Yes
    Format settings, GMC                     : No warppoints
    Format settings, Matrix                  : Default (H.263)
    Muxing mode                              : Packed bitstream
    Codec ID                                 : XVID
    Codec ID/Hint                            : XviD
    Duration                                 : 25mn 38s
    Bit rate                                 : 1 226 Kbps
    Width                                    : 640 pixels
    Height                                   : 480 pixels
    Display aspect ratio                     : 4:3
    Frame rate                               : 23.976 fps
    Color space                              : YUV
    Chroma subsampling                       : 4:2:0
    Bit depth                                : 8 bits
    Scan type                                : Progressive
    Compression mode                         : Lossy
    Bits/(Pixel*Frame)                       : 0.166
    Stream size                              : 225 MiB (90%)
    Writing library                          : XviD 1.2.1 (UTC 2008-12-04)
    
    Audio
    ID                                       : 1
    Format                                   : MPEG Audio
    Format version                           : Version 1
    Format profile                           : Layer 3
    Mode                                     : Joint stereo
    Mode extension                           : MS Stereo
    Codec ID                                 : 55
    Codec ID/Hint                            : MP3
    Duration                                 : 25mn 38s
    Bit rate mode                            : Constant
    Bit rate                                 : 128 Kbps
    Channel count                            : 2 channels
    Sampling rate                            : 44.1 KHz
    Compression mode                         : Lossy
    Stream size                              : 23.5 MiB (9%)
    Alignment                                : Split accross interleaves
    Interleave, duration                     : 42 ms (1.00 video frame)
    Interleave, preload duration             : 500 ms
    Writing library                          : LAME3.90.3
    x264 AAC
    Code:
    Format                                   : MPEG-4
    Format profile                           : Base Media
    Codec ID                                 : isom
    File size                                : 251 MiB
    Duration                                 : 25mn 38s
    Overall bit rate mode                    : Variable
    Overall bit rate                         : 1 366 Kbps
    Encoded date                             : UTC 2014-02-09 22:57:58
    Tagged date                              : UTC 2014-02-09 22:57:58
    
    Video
    ID                                       : 1
    Format                                   : AVC
    Format/Info                              : Advanced Video Codec
    Format profile                           : [email protected]
    Format settings, CABAC                   : Yes
    Format settings, ReFrames                : 10 frames
    Codec ID                                 : avc1
    Codec ID/Info                            : Advanced Video Coding
    Duration                                 : 25mn 38s
    Bit rate                                 : 1 234 Kbps
    Maximum bit rate                         : 5 090 Kbps
    Width                                    : 960 pixels
    Height                                   : 720 pixels
    Display aspect ratio                     : 4:3
    Frame rate mode                          : Constant
    Frame rate                               : 23.976 fps
    Color space                              : YUV
    Chroma subsampling                       : 4:2:0
    Bit depth                                : 8 bits
    Scan type                                : Progressive
    Bits/(Pixel*Frame)                       : 0.074
    Stream size                              : 226 MiB (90%)
    Writing library                          : x264 core 116 r2074 2641b9e
    Encoding settings                        : cabac=1 / ref=10 / deblock=1:1:1 / analyse=0x3:0x113 / me=umh / subme=8 / psy=1 / psy_rd=0.40:0.00 / mixed_ref=1 / me_range=16 / chroma_me=1 / trellis=1 / 8x8dct=1 / cqm=0 / deadzone=21,11 / fast_pskip=1 / chroma_qp_offset=-2 / threads=12 / sliced_threads=0 / nr=0 / decimate=1 / interlaced=0 / bluray_compat=0 / constrained_intra=0 / bframes=5 / b_pyramid=2 / b_adapt=2 / b_bias=0 / direct=3 / weightb=1 / open_gop=0 / weightp=2 / keyint=250 / keyint_min=23 / scenecut=40 / intra_refresh=0 / rc_lookahead=50 / rc=2pass / mbtree=1 / bitrate=1234 / ratetol=1.0 / qcomp=0.60 / qpmin=10 / qpmax=51 / qpstep=4 / cplxblur=20.0 / qblur=0.5 / vbv_maxrate=24000 / vbv_bufsize=24000 / nal_hrd=none / ip_ratio=1.40 / aq=1:0.60
    Encoded date                             : UTC 2014-02-09 22:57:58
    Tagged date                              : UTC 2014-02-09 22:58:01
    
    Audio
    ID                                       : 2
    Format                                   : AAC
    Format/Info                              : Advanced Audio Codec
    Format profile                           : LC
    Codec ID                                 : 40
    Duration                                 : 25mn 38s
    Bit rate mode                            : Variable
    Bit rate                                 : 128 Kbps
    Maximum bit rate                         : 138 Kbps
    Channel count                            : 2 channels
    Channel positions                        : Front: L R
    Sampling rate                            : 48.0 KHz
    Compression mode                         : Lossy
    Stream size                              : 23.5 MiB (9%)
    Encoded date                             : UTC 2014-02-09 22:58:00
    Tagged date                              : UTC 2014-02-09 22:58:01




    Geschützter Bereich - Bedanke dich beim Poster, um den Bereich sehen zu können
    Hier erfährst Du wie Du Dich bedanken kannst oder werde jetzt Premium Mitglied ab einer Spende von 5€ und erhalte sofortigen Zugriff auf den Downloadbereich!


    [Links sind nur für registrierte und aktivierte Nutzer sichtbar. Klicke hier um dich zu registrieren.]
    Geändert von so1k (12. October 2016 um 20:02 Uhr)
    !!!Alle Anliegen bezüglich Uploads werden nur mit direktem Threadlink zum Angebot bearbeitet!!!

    Re-Uploadanfragen nur per PN - Ihr könnt mir auch Listen schicken

    Re-Uploads erfolgen meist innerhalb 24h, kann aber auch bis zu 7 Tage dauern

    [Links sind nur für registrierte und aktivierte Nutzer sichtbar. Klicke hier um dich zu registrieren.] | [Links sind nur für registrierte und aktivierte Nutzer sichtbar. Klicke hier um dich zu registrieren.] | >[Links sind nur für registrierte und aktivierte Nutzer sichtbar. Klicke hier um dich zu registrieren.]<
    [Links sind nur für registrierte und aktivierte Nutzer sichtbar. Klicke hier um dich zu registrieren.]

  2. 36 Benutzer sagen Danke:

    Avenger2201 (21. July 2015),bjoegi (1. August 2015),carollatranny (30. December 2015),Ch1quita (19. August 2015),Dalurin (21. July 2015),Dova88 (11. September 2015),Drachengott (2. November 2015),eraz (20. August 2015),exterminus (7. October 2016),Fox Faram (20. August 2015),FreshMagma (18. August 2015),Gatti1983 (10. February 2016),Geisterhaendler (21. August 2015),Griever (21. November 2016),helloplaya (22. September 2015),julian.schuh (Gestern),Kaffee333 (21. November 2016),Kartox (16. November 2015),Kibapadda (4. May 2016),LawrenceKraft (5. December 2015),Lyres (26. July 2015),mclaurier (2. April 2016),midnighter (22. July 2015),prinzvegeta (3. December 2015),Ronae (22. July 2015),Scorpionlord88 (23. February 2016),Shi No Ryu (21. July 2015),Silentshipping (7. August 2015),Skeletti (24. September 2015),SONNYxq (21. July 2015),Tekk (21. July 2015),TheYoAsakura (26. August 2016),thomas (15. November 2016),tokyodrift (2. November 2015),YamiXGhost (17. August 2015),Zap (30. October 2015)

  3. #2
    United we Stand Avatar von 00Ryuji00
    Registriert seit
    Oct 2012
    Beiträge
    3.897
    Punkte
    99.519
    Errungenschaften:
    TomodachisGang LeaderHikikomoriTagger Amateur50000 Erfahrungspunkte

    AW: Urusei Yatsura + OVA [Jap-Dub][Ger-Sub][480p/540p/720p][DVDRip/BluRay] - FA

    Folge 27 online ~
    !!!Alle Anliegen bezüglich Uploads werden nur mit direktem Threadlink zum Angebot bearbeitet!!!

    Re-Uploadanfragen nur per PN - Ihr könnt mir auch Listen schicken

    Re-Uploads erfolgen meist innerhalb 24h, kann aber auch bis zu 7 Tage dauern

    [Links sind nur für registrierte und aktivierte Nutzer sichtbar. Klicke hier um dich zu registrieren.] | [Links sind nur für registrierte und aktivierte Nutzer sichtbar. Klicke hier um dich zu registrieren.] | >[Links sind nur für registrierte und aktivierte Nutzer sichtbar. Klicke hier um dich zu registrieren.]<
    [Links sind nur für registrierte und aktivierte Nutzer sichtbar. Klicke hier um dich zu registrieren.]

  4. 3 Benutzer sagen Danke:

    eraz (20. August 2015),FreshMagma (23. August 2015),Scorpionlord88 (23. February 2016)

  5. #3
    United we Stand Avatar von 00Ryuji00
    Registriert seit
    Oct 2012
    Beiträge
    3.897
    Punkte
    99.519
    Errungenschaften:
    TomodachisGang LeaderHikikomoriTagger Amateur50000 Erfahrungspunkte

    AW: Urusei Yatsura + OVA [Jap-Dub][Ger-Sub][480p/540p/720p][DVDRip/BluRay] - FA

    Folge 28 online ~
    !!!Alle Anliegen bezüglich Uploads werden nur mit direktem Threadlink zum Angebot bearbeitet!!!

    Re-Uploadanfragen nur per PN - Ihr könnt mir auch Listen schicken

    Re-Uploads erfolgen meist innerhalb 24h, kann aber auch bis zu 7 Tage dauern

    [Links sind nur für registrierte und aktivierte Nutzer sichtbar. Klicke hier um dich zu registrieren.] | [Links sind nur für registrierte und aktivierte Nutzer sichtbar. Klicke hier um dich zu registrieren.] | >[Links sind nur für registrierte und aktivierte Nutzer sichtbar. Klicke hier um dich zu registrieren.]<
    [Links sind nur für registrierte und aktivierte Nutzer sichtbar. Klicke hier um dich zu registrieren.]

  6. 1 Benutzer sagt Danke:

    eraz (9. December 2015)

  7. #4
    United we Stand Avatar von 00Ryuji00
    Registriert seit
    Oct 2012
    Beiträge
    3.897
    Punkte
    99.519
    Errungenschaften:
    TomodachisGang LeaderHikikomoriTagger Amateur50000 Erfahrungspunkte

    AW: Urusei Yatsura + OVA [Jap-Dub][Ger-Sub][480p/540p/720p][DVDRip/BluRay] - FA

    Alle Files wieder online + Folge 29 hinzugefügt ~
    !!!Alle Anliegen bezüglich Uploads werden nur mit direktem Threadlink zum Angebot bearbeitet!!!

    Re-Uploadanfragen nur per PN - Ihr könnt mir auch Listen schicken

    Re-Uploads erfolgen meist innerhalb 24h, kann aber auch bis zu 7 Tage dauern

    [Links sind nur für registrierte und aktivierte Nutzer sichtbar. Klicke hier um dich zu registrieren.] | [Links sind nur für registrierte und aktivierte Nutzer sichtbar. Klicke hier um dich zu registrieren.] | >[Links sind nur für registrierte und aktivierte Nutzer sichtbar. Klicke hier um dich zu registrieren.]<
    [Links sind nur für registrierte und aktivierte Nutzer sichtbar. Klicke hier um dich zu registrieren.]

  8. 1 Benutzer sagt Danke:

    eraz (9. November 2015)

  9. #5
    United we Stand Avatar von 00Ryuji00
    Registriert seit
    Oct 2012
    Beiträge
    3.897
    Punkte
    99.519
    Errungenschaften:
    TomodachisGang LeaderHikikomoriTagger Amateur50000 Erfahrungspunkte

    AW: Urusei Yatsura + OVA [Jap-Dub][Ger-Sub][480p/540p/720p][DVDRip/BluRay] - FA

    Folge 30 online ~
    !!!Alle Anliegen bezüglich Uploads werden nur mit direktem Threadlink zum Angebot bearbeitet!!!

    Re-Uploadanfragen nur per PN - Ihr könnt mir auch Listen schicken

    Re-Uploads erfolgen meist innerhalb 24h, kann aber auch bis zu 7 Tage dauern

    [Links sind nur für registrierte und aktivierte Nutzer sichtbar. Klicke hier um dich zu registrieren.] | [Links sind nur für registrierte und aktivierte Nutzer sichtbar. Klicke hier um dich zu registrieren.] | >[Links sind nur für registrierte und aktivierte Nutzer sichtbar. Klicke hier um dich zu registrieren.]<
    [Links sind nur für registrierte und aktivierte Nutzer sichtbar. Klicke hier um dich zu registrieren.]

  10. 2 Benutzer sagen Danke:

    eraz (9. November 2015),FreshMagma (26. November 2015)

  11. #6
    United we Stand Avatar von 00Ryuji00
    Registriert seit
    Oct 2012
    Beiträge
    3.897
    Punkte
    99.519
    Errungenschaften:
    TomodachisGang LeaderHikikomoriTagger Amateur50000 Erfahrungspunkte

    AW: Urusei Yatsura + OVA [Laufend][Jap-Dub][Ger-Sub][480p/540p/720p][DVDRip/BluRay] - FA

    Update: Dateien auf Wunsch wieder online.

    Folgen 31 - 35 hinzugefügt.
    !!!Alle Anliegen bezüglich Uploads werden nur mit direktem Threadlink zum Angebot bearbeitet!!!

    Re-Uploadanfragen nur per PN - Ihr könnt mir auch Listen schicken

    Re-Uploads erfolgen meist innerhalb 24h, kann aber auch bis zu 7 Tage dauern

    [Links sind nur für registrierte und aktivierte Nutzer sichtbar. Klicke hier um dich zu registrieren.] | [Links sind nur für registrierte und aktivierte Nutzer sichtbar. Klicke hier um dich zu registrieren.] | >[Links sind nur für registrierte und aktivierte Nutzer sichtbar. Klicke hier um dich zu registrieren.]<
    [Links sind nur für registrierte und aktivierte Nutzer sichtbar. Klicke hier um dich zu registrieren.]

Lesezeichen

Berechtigungen

  • Neue Themen erstellen: Nein
  • Themen beantworten: Nein
  • Anhänge hochladen: Nein
  • Beiträge bearbeiten: Nein
  •  

1 2 3 4 5 6 7 8 9 10 11 12 13 14 15 16 17 18 19 20 21 22 23 24 25 26 27 28 29 30 31 32 33 34 35 36 37 38 39 40 41 42 43 44 45 46 47 48 49 50 51 52 53 54 55 56 57 58 59 60 61 62 63 64 65 66 67 68 69 70 71 72 73 74 75 76 77 78 79 80 81 82 83 84 85 86 87 88 89 90 91 92 93 94 95 96 97 98 99 100 101 102 103 104 105 106 107 108 109 110 111 112 113 114 115 116 117 118 119 120 121 122 123 124 125 126 127 128 129 130 131 132 133 134 135 136 137 138 139 140 141 142 143 144 145 146 147 148 149 150 151 152 153 154 155 156 157 158