Ergebnis 1 bis 1 von 1

Thema: Usagi Drop [Jap-Dub][Ger-Sub][720p][HDTV]

Dieser Thread wurde noch nicht bewertet. Bewerte ihn doch, wenn er dir gefällt!
  1. #1
    United we Stand Avatar von 00Ryuji00
    Registriert seit
    Oct 2012
    Beiträge
    3.902
    Punkte
    99.823
    Errungenschaften:
    TomodachisGang LeaderHikikomoriTagger Amateur50000 Erfahrungspunkte

    Usagi Drop [Jap-Dub][Ger-Sub][720p][HDTV]


    Usagi Drop
    うさぎドロップ
    Bunny Drop






    Kurzbeschreibung:
    Zitat Zitat von AniSearch.com
    Der 30-jährige Junggeselle Daikichi erfährt nach dem Tod seines Großvaters, dass dieser ein uneheliches Kind mit einer jüngeren Liebhaberin hat. Das stille Mädchen namens Rin wird von ihren anderen Familienmitgliedern ausgeschlossen, denn niemand möchte etwas mit der Kleinen zu tun haben. Einzig Daikichi entscheidet spontan und durch die Wut auf seine anderen Familienmitglieder, die Kleine bei sich aufzunehmen. Für den ruhigen und schüchternen Daikichi ändert sich sein Leben plötzlich von Grund auf: Die Erziehung eines Kindes stellt für ihn eine neuartige und bislang ungekannte Herausforderung dar.


    Spieldauer: 23min
    Genre: Alltagsdrama
    Nebengenres: Alltagsleben, Drama, Komödie, Männlich, Weiblich
    Jahr: 2011
    Sprache: Japanisch
    Untertitel: Deutsch
    Größe pro Folge:
    Episodenanzahl: 11/11
    Format: mp4
    Auflösung: 720p (16:9)
    Videocodec: x264 (AVC)
    Releasegruppe: NG
    Hoster: Share-Online, Uploaded


    MediaInfo
    Code:
    
    Format                                   : MPEG-4
    Format profile                           : Base Media
    Codec ID                                 : isom
    File size                                : 357 MiB
    Duration                                 : 22mn 55s
    Overall bit rate mode                    : Variable
    Overall bit rate                         : 2 178 Kbps
    Encoded date                             : UTC 2011-07-21 23:55:34
    Tagged date                              : UTC 2011-07-21 23:55:34
    
    Video
    ID                                       : 1
    Format                                   : AVC
    Format/Info                              : Advanced Video Codec
    Format profile                           : [email protected]
    Format settings, CABAC                   : Yes
    Format settings, ReFrames                : 3 frames
    Codec ID                                 : avc1
    Codec ID/Info                            : Advanced Video Coding
    Duration                                 : 22mn 54s
    Bit rate                                 : 2 038 Kbps
    Maximum bit rate                         : 12.4 Mbps
    Width                                    : 1 280 pixels
    Height                                   : 720 pixels
    Display aspect ratio                     : 16:9
    Frame rate mode                          : Constant
    Frame rate                               : 23.976 fps
    Color space                              : YUV
    Chroma subsampling                       : 4:2:0
    Bit depth                                : 8 bits
    Scan type                                : Progressive
    Bits/(Pixel*Frame)                       : 0.092
    Stream size                              : 334 MiB (94%)
    Writing library                          : x264 core 115 r1995 c1e60b9
    Encoding settings                        : cabac=1 / ref=3 / deblock=1:1:1 / analyse=0x3:0x113 / me=hex / subme=7 / psy=1 / psy_rd=1.00:0.00 / mixed_ref=1 / me_range=16 / chroma_me=1 / trellis=1 / 8x8dct=1 / cqm=0 / deadzone=21,11 / fast_pskip=1 / chroma_qp_offset=-2 / threads=6 / sliced_threads=0 / nr=0 / decimate=1 / interlaced=0 / bluray_compat=0 / constrained_intra=0 / bframes=3 / b_pyramid=0 / b_adapt=1 / b_bias=0 / direct=1 / weightb=1 / open_gop=0 / weightp=2 / keyint=240 / keyint_min=24 / scenecut=40 / intra_refresh=0 / rc_lookahead=40 / rc=crf / mbtree=0 / crf=19.0 / qcomp=0.60 / qpmin=10 / qpmax=51 / qpstep=4 / vbv_maxrate=31250 / vbv_bufsize=31250 / crf_max=0.0 / nal_hrd=none / ip_ratio=1.40 / pb_ratio=1.30 / aq=1:1.00
    Encoded date                             : UTC 2011-07-21 23:55:34
    Tagged date                              : UTC 2011-07-21 23:55:58
    
    Audio
    ID                                       : 2
    Format                                   : AAC
    Format/Info                              : Advanced Audio Codec
    Format profile                           : LC
    Codec ID                                 : 40
    Duration                                 : 22mn 55s
    Bit rate mode                            : Variable
    Bit rate                                 : 137 Kbps
    Maximum bit rate                         : 175 Kbps
    Channel count                            : 2 channels
    Channel positions                        : Front: L R
    Sampling rate                            : 48.0 KHz
    Compression mode                         : Lossy
    Stream size                              : 22.5 MiB (6%)
    Encoded date                             : UTC 2011-07-21 23:55:57
    Tagged date                              : UTC 2011-07-21 23:55:58
    
    





    Geschützter Bereich - Bedanke dich beim Poster, um den Bereich sehen zu können
    Hier erfährst Du wie Du Dich bedanken kannst oder werde jetzt Premium Mitglied ab einer Spende von 5€ und erhalte sofortigen Zugriff auf den Downloadbereich!

    !!!Alle Anliegen bezüglich Uploads werden nur mit direktem Threadlink zum Angebot bearbeitet!!!

    Re-Uploadanfragen nur per PN - Ihr könnt mir auch Listen schicken

    Re-Uploads erfolgen meist innerhalb 24h, kann aber auch bis zu 7 Tage dauern

    [Links sind nur für registrierte und aktivierte Nutzer sichtbar. Klicke hier um dich zu registrieren.] | [Links sind nur für registrierte und aktivierte Nutzer sichtbar. Klicke hier um dich zu registrieren.] | >[Links sind nur für registrierte und aktivierte Nutzer sichtbar. Klicke hier um dich zu registrieren.]<
    [Links sind nur für registrierte und aktivierte Nutzer sichtbar. Klicke hier um dich zu registrieren.]

  2. 22 Benutzer sagen Danke:

    Akio (21. April 2016),Androkai (11. August 2015),coldbears48 (12. January 2016),farmerjoe (10. April 2016),GiftGasBaer (11. April 2016),Gorbatschow (15. November 2015),hanismustismann (25. September 2015),Killua (12. August 2015),michael187 (21. September 2015),midnighter (12. August 2015),Neosix (24. April 2016),neron86 (20. August 2015),norby (6. April 2016),Number11 (8. January 2016),R0mpel (2. March 2016),realmadridcf (15. August 2015),SewoV4 (14. April 2016),toscha (14. March 2016),WolfsBlade (27. September 2015),xGate (9. December 2015),XTimtaniumX (2. May 2016),Zap (9. September 2015)

Lesezeichen

Berechtigungen

  • Neue Themen erstellen: Nein
  • Themen beantworten: Nein
  • Anhänge hochladen: Nein
  • Beiträge bearbeiten: Nein
  •  

1 2 3 4 5 6 7 8 9 10 11 12 13 14 15 16 17 18 19 20 21 22 23 24 25 26 27 28 29 30 31 32 33 34 35 36 37 38 39 40 41 42 43 44 45 46 47 48 49 50 51 52 53 54 55 56 57 58 59 60 61 62 63 64 65 66 67 68 69 70 71 72 73 74 75 76 77 78 79 80 81 82 83 84 85 86 87 88 89 90 91 92 93 94 95 96 97 98 99 100 101 102 103 104 105 106 107 108 109 110 111 112 113 114 115 116 117 118 119 120 121 122 123 124 125 126 127 128 129 130 131 132 133 134 135 136 137 138 139 140 141 142 143 144 145 146 147 148 149 150 151 152 153 154 155 156 157 158