Ergebnis 1 bis 1 von 1

Thema: Ushinawareta Mirai o Motomete [Ger Sub][Jap Dub][720p][HDTV]

Dieser Thread wurde noch nicht bewertet. Bewerte ihn doch, wenn er dir gefällt!
  1. #1
    Erfahrener Otaku Avatar von Kajiro
    Registriert seit
    Mar 2014
    Ort
    Irgendwo im Nirgendwo
    Beiträge
    213
    Punkte
    10.403
    Errungenschaften:
    10000 ErfahrungspunkteHikikomori

    Ushinawareta Mirai o Motomete [Ger Sub][Jap Dub][720p][HDTV]


    Ushinawareta Mirai o Motomete





    Kurzbeschreibung:
    Im Astronomieklub der Uchihama-Akademie widmen sich die Mitglieder nur nebenbei dem Erforschen der Sterne und geben sich stattdessen vor allem den angenehmen Seiten des Lebens hin: Faulenzen, gemeinsam Spaß haben und schauen, was sonst gerade in der Schule Interessantes passiert. Wenn Not am Mann ist, wird man von den anderen Schülern mitunter auch um Hilfe gebeten, aber meistens widmen sich die fünf Freunde doch sich selbst. So ist Kaori aktuell gerade damit beschäftigt endlich den Mut aufzubringen, ihrem begriffsstutzigen Kindheitsfreund Sou ihre Liebe zu gestehen. Bevor es noch dazu kommt, treten dramatische und mysteriöse Entwicklungen auf, wie etwa das allen unbekannte Mädchen Yui, das plötzlich nackt und ohne Erinnerungen in der Schule aufgefunden wird, aber sofort die Nähe zum Astronomieklub sucht. Oder auch die unheimlichen Geistersichtungen, die Unruhe unter der Schülerschaft hervorrufen und deren Untersuchung den nunmehr sechs Freunden aufgetragen wird.


    Sprache: Japanisch
    Untertitel: Deutsch
    Folgen: 12/12
    Größe: ~200MB
    Format: MP4
    Auflösung: 1280x720
    Genre: Drama/romanze
    Sub Gruppe: [P-A]


    Datei Info:
    Spoiler
    Video
    ID : 1
    Format : AVC
    Format/Info : Advanced Video Codec
    Format profile : [email protected]
    Format settings, CABAC : Yes
    Format settings, ReFrames : 4 frames
    Codec ID : avc1
    Codec ID/Info : Advanced Video Coding
    Duration : 24mn 0s
    Bit rate : 1 096 Kbps
    Maximum bit rate : 5 348 Kbps
    Width : 1 280 pixels
    Height : 720 pixels
    Display aspect ratio : 16:9
    Frame rate mode : Constant
    Frame rate : 23.976 fps
    Color space : YUV
    Chroma subsampling : 4:2:0
    Bit depth : 8 bits
    Scan type : Progressive
    Bits/(Pixel*Frame) : 0.050
    Stream size : 188 MiB (88%)
    Writing library : x264 core 125 r2200 999b753

    Audio
    ID : 2
    Format : AAC
    Format/Info : Advanced Audio Codec
    Format profile : LC
    Codec ID : 40
    Duration : 24mn 0s
    Bit rate mode : Variable
    Bit rate : 152 Kbps
    Maximum bit rate : 198 Kbps
    Channel(s) : 2 channels
    Channel positions : Front: L R
    Sampling rate : 48.0 KHz
    Compression mode : Lossy
    Stream size : 26.0 MiB (12%)
    Encoded date : UTC 2014-10-07 17:24:15
    Tagged date : UTC 2014-10-07 17:24:16






    Geschützter Bereich - Bedanke dich beim Poster, um den Bereich sehen zu können
    Hier erfährst Du wie Du Dich bedanken kannst oder werde jetzt Premium Mitglied ab einer Spende von 5€ und erhalte sofortigen Zugriff auf den Downloadbereich!

    Inaktiver Uploader!

    Alle Re-Upload-Anfragen öffentlich im [Links sind nur für registrierte und aktivierte Nutzer sichtbar. Klicke hier um dich zu registrieren.] posten!

  2. 40 Benutzer sagen Danke:

    Akame-chan (26. December 2014),azzieh (26. December 2014),Bohnihater (21. January 2015),classius (19. June 2015),Daredevil1989_inactive (25. February 2015),Drachengott (27. December 2014),Esyldra (31. December 2014),EvilArschloch (31. October 2015),FantasticZ (28. April 2015),fl0wstylzzz_inactive (29. December 2014),Gatti1983 (13. December 2015),hacime (7. March 2015),Heroic (24. February 2015),hnnnn (30. September 2015),isiprimax (15. January 2015),Kartox (5. April 2015),Kimaliko (4. April 2015),krausi22 (27. March 2015),Lautrerbomber (20. March 2015),Magikarp (29. December 2014),midnighter (25. December 2014),Miles360 (24. December 2014),Modell_Thomas (28. April 2015),Noire16 (18. April 2015),prinzvegeta (15. November 2015),rabmaster (27. January 2015),RapidKill (1. January 2015),Raven (24. December 2014),Ronae (25. December 2014),Roxas-chan (9. February 2015),Scypher (24. December 2014),SerienStream (4. May 2015),Shugyosha (8. January 2015),simi90 (3. January 2015),skylier (13. February 2015),Snake356 (24. December 2014),SnowCat (2. January 2015),SONNYxq (5. March 2015),Stones (9. February 2016),Yaranaika (8. January 2015)

Lesezeichen

Berechtigungen

  • Neue Themen erstellen: Nein
  • Themen beantworten: Nein
  • Anhänge hochladen: Nein
  • Beiträge bearbeiten: Nein
  •  

1 2 3 4 5 6 7 8 9 10 11 12 13 14 15 16 17 18 19 20 21 22 23 24 25 26 27 28 29 30 31 32 33 34 35 36 37 38 39 40 41 42 43 44 45 46 47 48 49 50 51 52 53 54 55 56 57 58 59 60 61 62 63 64 65 66 67 68 69 70 71 72 73 74 75 76 77 78 79 80 81 82 83 84 85 86 87 88 89 90 91 92 93 94 95 96 97 98 99 100 101 102 103 104 105 106 107 108 109 110 111 112 113 114 115 116 117 118 119 120 121 122 123 124 125 126 127 128 129 130 131 132 133 134 135 136 137 138 139 140 141 142 143 144 145 146 147 148 149 150 151 152 153 154 155 156 157 158