Ergebnis 1 bis 3 von 3

Thema: Valkyrie Drive ~Mermaid~ [Eingestellt][Jap-Dub][Ger-Sub][720p/1080p-10Bit][BluRay] - FB

Dieser Thread wurde noch nicht bewertet. Bewerte ihn doch, wenn er dir gefällt!
  1. #1
    Uploader Avatar von Filbo11
    Registriert seit
    Jan 2015
    Beiträge
    931
    Punkte
    17.255
    Errungenschaften:
    TomodachisErste Gruppe1 Jahr registriertCreated Album picturesTagger First Class

    Valkyrie Drive ~Mermaid~ [Eingestellt][Jap-Dub][Ger-Sub][720p/1080p-10Bit][BluRay] - FB

    Valkyrie Drive: Mermaid
    ヴァルキリードライヴ マーメイド




    Beschreibung

    Die Geschichte spielt auf fünf künstlichen Inseln, auf die das Mädchen Mamori Tokonome versetzt wird. Als diese angegegriffen wurde, kam ihr die Frau Mirei Shikishima zur Hilfe und rettete sie. Doch der Feind hört nicht auf, sie anzugreifen und schon bald stecken Mirei und Mamori in der Klemme. Als alle Hoffnung verloren zu sein scheint, küsst Mirei Mamori, so dass sie sich in ein Schwert verwandelt. Durch diese Verwandlung gelingt es ihr, aus der misslichen Lage zu entkommen und den Feind in die Flucht zu schlagen.


    Format: mkv
    Dauer: ca. 24 min
    Größe: ca. 666-710 MB [720p] / 1,5-1,6 GB [1080p]
    Sprache: Japanisch
    Untertitel: Deutsch
    Group: [FB]
    Hoster: Uploaded.net & Share-Online.biz
    kein PW

    Screenshots & MediaInfo

    720p
    [Links sind nur für registrierte und aktivierte Nutzer sichtbar. Klicke hier um dich zu registrieren.]

    Code:
    General
    
    Complete name               : [FB] Valkyrie Drive ~Mermaid~ [01] (BD 720p 10Bit x264 AAC).mkv
    Format                      : Matroska
    Format version              : Version 4 / Version 2
    File size                   : 717 MiB
    Duration                    : 23mn 41s
    Overall bit rate            : 4 229 Kbps
    Movie name                  : [FB] Valkyrie Drive ~Mermaid~ [01] (BD 720p 10Bit x264 AAC)
    Encoded date                : UTC 2016-03-29 10:45:21
    Writing application         : mkvmerge v9.0.1 ('Obstacles') 64bit
    Writing library             : libebml v1.3.3 + libmatroska v1.4.4
    
    Video
    ID                          : 1
    Format                      : AVC
    Format/Info                 : Advanced Video Codec
    Format profile              : High [email protected]
    Format settings, CABAC      : Yes
    Format settings, ReFrames   : 16 frames
    Codec ID                    : V_MPEG4/ISO/AVC
    Duration                    : 23mn 41s
    Bit rate                    : 3 912 Kbps
    Width                       : 1 280 pixels
    Height                      : 720 pixels
    Display aspect ratio        : 16:9
    Frame rate mode             : Constant
    Frame rate                  : 23.976 (24000/1001) fps
    Color space                 : YUV
    Chroma subsampling          : 4:2:0
    Bit depth                   : 10 bits
    Scan type                   : Progressive
    Bits/(Pixel*Frame)          : 0.177
    Stream size                 : 663 MiB (93%)
    Title                       : by Filbo11
    Writing library             : x264 core 146 r2538kMod 121396c
    Encoding settings           : cabac=1 / ref=16 / deblock=1:1:1 / analyse=0x3:0x133 / me=umh / subme=11 / psy=1 / fade_compensate=0.00 / psy_rd=0.50:0.10 / mixed_ref=1 / me_range=32 / chroma_me=1 / trellis=2 / 8x8dct=1 / cqm=0 / deadzone=21,11 / fast_pskip=0 / chroma_qp_offset=-3 / threads=6 / lookahead_threads=1 / sliced_threads=0 / nr=0 / decimate=0 / interlaced=0 / bluray_compat=0 / constrained_intra=0 / fgo=0 / bframes=16 / b_pyramid=2 / b_adapt=2 / b_bias=0 / direct=3 / weightb=1 / open_gop=0 / weightp=2 / keyint=250 / keyint_min=23 / scenecut=40 / intra_refresh=0 / rc_lookahead=60 / rc=crf / mbtree=1 / crf=16.0000 / qcomp=0.80 / qpmin=0 / qpmax=81 / qpstep=4 / ip_ratio=1.40 / aq=3:0.80
    Default                     : Yes
    Forced                      : Yes
    Color range                 : Limited
    Color primaries             : BT.709
    Transfer characteristics    : BT.709
    Matrix coefficients         : BT.709
    
    Audio
    ID                          : 2
    Format                      : AAC
    Format/Info                 : Advanced Audio Codec
    Format profile              : LC
    Codec ID                    : A_AAC
    Duration                    : 23mn 41s
    Bit rate                    : 315 Kbps
    Channel(s)                  : 2 channels
    Channel positions           : Front: L R
    Sampling rate               : 48.0 KHz
    Frame rate                  : 46.875 fps (1024 spf)
    Compression mode            : Lossy
    Stream size                 : 53.3 MiB (7%)
    Language                    : Japanese
    Default                     : Yes
    Forced                      : Yes
    
    Menu
    00:00:00.033                : en:Intro
    00:00:37.010                : en:Part A
    00:10:50.040                : en:Part B
    00:22:05.050                : en:ED
    00:23:35.060                : en:Preview


    1080p
    [Links sind nur für registrierte und aktivierte Nutzer sichtbar. Klicke hier um dich zu registrieren.]

    Code:
    General
    
    Complete name               : [FB] Valkyrie Drive ~Mermaid~ [01v2] (BD 1080p 10Bit x264 PCM).mkv
    Format                      : Matroska
    Format version              : Version 4 / Version 2
    File size                   : 1.60 GiB
    Duration                    : 23mn 41s
    Overall bit rate            : 9 684 Kbps
    Movie name                  : [FB] Valkyrie Drive ~Mermaid~ [01v2] (BD 1080p 10Bit x264 PCM)
    Encoded date                : UTC 2016-03-11 18:31:12
    Writing application         : mkvmerge v8.9.0 ('Father Daughter') 64bit
    Writing library             : libebml v1.3.3 + libmatroska v1.4.4
    
    Video
    ID                          : 1
    Format                      : AVC
    Format/Info                 : Advanced Video Codec
    Format profile              : High [email protected]
    Format settings, CABAC      : Yes
    Format settings, ReFrames   : 16 frames
    Codec ID                    : V_MPEG4/ISO/AVC
    Duration                    : 23mn 41s
    Bit rate                    : 8 145 Kbps
    Width                       : 1 920 pixels
    Height                      : 1 080 pixels
    Display aspect ratio        : 16:9
    Frame rate mode             : Constant
    Frame rate                  : 23.976 (24000/1001) fps
    Color space                 : YUV
    Chroma subsampling          : 4:2:0
    Bit depth                   : 10 bits
    Scan type                   : Progressive
    Bits/(Pixel*Frame)          : 0.164
    Stream size                 : 1.35 GiB (84%)
    Title                       : by Filbo11
    Writing library             : x264 core 146 r2538kMod 121396c
    Encoding settings           : cabac=1 / ref=16 / deblock=1:1:1 / analyse=0x3:0x133 / me=umh / subme=11 / psy=1 / fade_compensate=0.00 / psy_rd=0.50:0.10 / mixed_ref=1 / me_range=32 / chroma_me=1 / trellis=2 / 8x8dct=1 / cqm=0 / deadzone=21,11 / fast_pskip=0 / chroma_qp_offset=-3 / threads=6 / lookahead_threads=1 / sliced_threads=0 / nr=0 / decimate=0 / interlaced=0 / bluray_compat=0 / constrained_intra=0 / fgo=0 / bframes=16 / b_pyramid=2 / b_adapt=2 / b_bias=0 / direct=3 / weightb=1 / open_gop=0 / weightp=2 / keyint=250 / keyint_min=23 / scenecut=40 / intra_refresh=0 / rc_lookahead=60 / rc=crf / mbtree=1 / crf=16.0000 / qcomp=0.80 / qpmin=0 / qpmax=81 / qpstep=4 / ip_ratio=1.40 / aq=3:0.80
    Default                     : Yes
    Forced                      : Yes
    Color range                 : Limited
    Color primaries             : BT.709
    Transfer characteristics    : BT.709
    Matrix coefficients         : BT.709
    
    Audio
    ID                          : 2
    Format                      : PCM
    Format settings, Endianness : Big
    Codec ID                    : A_PCM/INT/BIG
    Duration                    : 23mn 41s
    Bit rate mode               : Constant
    Bit rate                    : 1 536 Kbps
    Channel(s)                  : 2 channels
    Sampling rate               : 48.0 KHz
    Frame rate                  : 200.000 fps (240 spf)
    Bit depth                   : 16 bits
    Stream size                 : 260 MiB (16%)
    Language                    : Japanese
    Default                     : Yes
    Forced                      : Yes
    
    Menu
    00:00:00.033                : en:Intro
    00:00:37.010                : en:Part A
    00:10:50.040                : en:Part B
    00:22:05.050                : en:ED
    00:23:35.060                : en:Preview


    Alle Mirrors untereinander kompatibel
    Folgen einzeln ladbar
    Folge 4/12 online


    Download
    Geschützter Bereich - Bedanke dich beim Poster, um den Bereich sehen zu können
    Hier erfährst Du wie Du Dich bedanken kannst oder werde jetzt Premium Mitglied ab einer Spende von 5€ und erhalte sofortigen Zugriff auf den Downloadbereich!


    Geändert von Filbo11 (29. July 2016 um 20:30 Uhr) Grund: erstmal auf eis gelegt / ob ich es fortsetze weiß ich noch nicht

    [Links sind nur für registrierte und aktivierte Nutzer sichtbar. Klicke hier um dich zu registrieren.]

    Ich wäre allen sehr dankbar, die mir gravierende Fehler in meinen Releases per PN melden

  2. 17 Benutzer sagen Danke:

    Artheanos (10. March 2016),Asuka Langley (6. April 2016),Buze (9. March 2016),chopper23 (31. March 2016),dreambird1973 (11. July 2016),enfii (11. March 2016),Ghostraven (20. March 2016),imnuan (10. April 2016),Jinnay (9. March 2016),Kartox (2. April 2016),KeXiuS (12. March 2016),lfsxtreme (14. October 2016),midnighter (21. March 2016),Nanatzusaya (11. March 2016),Ronae (9. March 2016),Suigetsu (3. April 2016),Windwusel (9. March 2016)

  3. #2
    Uploader Avatar von Filbo11
    Registriert seit
    Jan 2015
    Beiträge
    931
    Punkte
    17.255
    Errungenschaften:
    TomodachisErste Gruppe1 Jahr registriertCreated Album picturesTagger First Class

    AW: Valkyrie Drive ~Mermaid~ [Laufend][Jap-Dub][Ger-Sub][PCM][1080p-10Bit][BluRay] - FB

    update: setting vom encode nochmals angepasst und klein wenig verbessert. viel spaß mit der v2 von folge 1 & 2

    [Links sind nur für registrierte und aktivierte Nutzer sichtbar. Klicke hier um dich zu registrieren.]

    Ich wäre allen sehr dankbar, die mir gravierende Fehler in meinen Releases per PN melden

  4. 1 Benutzer sagt Danke:

    Buze (23. April 2016)

  5. #3
    Uploader Avatar von Filbo11
    Registriert seit
    Jan 2015
    Beiträge
    931
    Punkte
    17.255
    Errungenschaften:
    TomodachisErste Gruppe1 Jahr registriertCreated Album picturesTagger First Class

    AW: Valkyrie Drive ~Mermaid~ [Laufend][Jap-Dub][Ger-Sub][720p/1080p-10Bit][BluRay] - FB

    folge 3 & 4 hinzugefügt

    folge 1-4 720p hinzugefügt

    [Links sind nur für registrierte und aktivierte Nutzer sichtbar. Klicke hier um dich zu registrieren.]

    Ich wäre allen sehr dankbar, die mir gravierende Fehler in meinen Releases per PN melden

  6. 2 Benutzer sagen Danke:

    Buze (10. April 2016),dreambird1973 (30. July 2016)

Stichworte

Lesezeichen

Berechtigungen

  • Neue Themen erstellen: Nein
  • Themen beantworten: Nein
  • Anhänge hochladen: Nein
  • Beiträge bearbeiten: Nein
  •  

1 2 3 4 5 6 7 8 9 10 11 12 13 14 15 16 17 18 19 20 21 22 23 24 25 26 27 28 29 30 31 32 33 34 35 36 37 38 39 40 41 42 43 44 45 46 47 48 49 50 51 52 53 54 55 56 57 58 59 60 61 62 63 64 65 66 67 68 69 70 71 72 73 74 75 76 77 78 79 80 81 82 83 84 85 86 87 88 89 90 91 92 93 94 95 96 97 98 99 100 101 102 103 104 105 106 107 108 109 110 111 112 113 114 115 116 117 118 119 120 121 122 123 124 125 126 127 128 129 130 131 132 133 134 135 136 137 138 139 140 141 142 143 144 145 146 147 148 149 150 151 152 153 154 155 156 157 158