Ergebnis 1 bis 1 von 1

Thema: Vampire Princess Miyu (TV) [Jap-Dub][Ger-Sub][480p][DVDRip]

Dieser Thread wurde noch nicht bewertet. Bewerte ihn doch, wenn er dir gefällt!
  1. #1
    Uploader Avatar von Filbo11
    Registriert seit
    Jan 2015
    Beiträge
    931
    Punkte
    17.281
    Errungenschaften:
    TomodachisErste Gruppe1 Jahr registriertCreated Album picturesTagger First Class

    Vampire Princess Miyu (TV) [Jap-Dub][Ger-Sub][480p][DVDRip]

    Kyuuketsuki Miyu (1997)(TV)
    吸血姫美夕 (1997)(TV)
    Vampire Princess Miyu TV




    Handlung

    Nach einem uralten Abkommen haben die Geisterwesen der Shinma kein Recht mehr, sich in der Welt der Lebenden aufzuhalten - doch nicht alle Shinma halten sich an dieses Abkommen. Die vierzehnjährige Miyu besucht eine Mittelschule in Japan und freundet sich im Laufe der Zeit mit einigen ihrer Klassenkameradinnen an. Niemand außer ihr weiß, dass es das Schicksal dieser unsterblichen Vampir-Prinzessin ist, die in der Welt der Lebenden existierenden Shinma zu finden und in die Unterwelt zu verbannen. Doch kein Shinma ist gewillt das angenehme Leben in dieser Welt, meist auf Kosten der Menschen, kampflos aufzugeben. Und einige dieser Shinma entwickeln einen tückischen Plan, sich diese Miyu und ihren mysteriösen Begleiter Larva vom Hals zu schaffen...


    Format: avi
    Dauer: ca. 24 min
    Größe: ca. 130-230 MB
    Episodenanzahl: 26/26
    Sprache: Japanisch
    Untertitel: Deutsch
    Group: [subs4u]
    Hoster: Uploaded.net & Share-Online.biz
    kein PW


    Screenshots & MediaInfo

    Spoiler
    [Links sind nur für registrierte und aktivierte Nutzer sichtbar. Klicke hier um dich zu registrieren.]
    [Links sind nur für registrierte und aktivierte Nutzer sichtbar. Klicke hier um dich zu registrieren.]

    Code:
    General
    Complete name               : [subs4u]_Vampire_Princess_Miyu_01_(Xvid,ger.sub)[670AF65F].avi
    Format                      : AVI
    Format/Info                 : Audio Video Interleave
    File size                   : 139 MiB
    Duration                    : 24mn 6s
    Overall bit rate            : 806 Kbps
    Writing application         : VirtualDubMod 1.5.10.2 (build 2540/release)
    Writing library             : VirtualDubMod build 2540/release
    
    Video
    ID                          : 0
    Format                      : MPEG-4 Visual
    Format profile              : Advanced [email protected]
    Format settings, BVOP       : 2
    Format settings, QPel       : No
    Format settings, GMC        : No warppoints
    Format settings, Matrix     : Default (H.263)
    Muxing mode                 : Packed bitstream
    Codec ID                    : XVID
    Codec ID/Hint               : XviD
    Duration                    : 24mn 6s
    Bit rate                    : 669 Kbps
    Width                       : 640 pixels
    Height                      : 480 pixels
    Display aspect ratio        : 4:3
    Frame rate                  : 23.976 fps
    Color space                 : YUV
    Chroma subsampling          : 4:2:0
    Bit depth                   : 8 bits
    Scan type                   : Progressive
    Compression mode            : Lossy
    Bits/(Pixel*Frame)          : 0.091
    Stream size                 : 115 MiB (83%)
    Writing library             : XviD 1.3.0.dev55
    
    Audio
    ID                          : 1
    Format                      : MPEG Audio
    Format version              : Version 1
    Format profile              : Layer 3
    Mode                        : Joint stereo
    Mode extension              : MS Stereo
    Codec ID                    : 55
    Codec ID/Hint               : MP3
    Duration                    : 24mn 6s
    Bit rate mode               : Constant
    Bit rate                    : 128 Kbps
    Channel(s)                  : 2 channels
    Sampling rate               : 48.0 KHz
    Compression mode            : Lossy
    Stream size                 : 22.1 MiB (16%)
    Alignment                   : Aligned on interleaves
    Interleave, duration        : 42 ms (1.00 video frame)
    Interleave, preload duratio : 504 ms
    Writing library             : LAME3.98r
    Encoding settings           : -m j -V 4 -q 2 -lowpass 17 -b 128


    Alle Mirrors untereinander kompatibel
    Folgen einzeln ladbar


    Download
    Geschützter Bereich - Bedanke dich beim Poster, um den Bereich sehen zu können
    Hier erfährst Du wie Du Dich bedanken kannst oder werde jetzt Premium Mitglied ab einer Spende von 5€ und erhalte sofortigen Zugriff auf den Downloadbereich!


    Geändert von Filbo11 (12. April 2016 um 10:16 Uhr)

    [Links sind nur für registrierte und aktivierte Nutzer sichtbar. Klicke hier um dich zu registrieren.]

    Ich wäre allen sehr dankbar, die mir gravierende Fehler in meinen Releases per PN melden

  2. 6 Benutzer sagen Danke:

    bjoegi (17. July 2015),Bloodywaffe (27. January 2016),Hisamaki (1. July 2015),Melijal (30. June 2015),midnighter (14. June 2015),Wastl (15. June 2015)

Stichworte

Lesezeichen

Berechtigungen

  • Neue Themen erstellen: Nein
  • Themen beantworten: Nein
  • Anhänge hochladen: Nein
  • Beiträge bearbeiten: Nein
  •  

1 2 3 4 5 6 7 8 9 10 11 12 13 14 15 16 17 18 19 20 21 22 23 24 25 26 27 28 29 30 31 32 33 34 35 36 37 38 39 40 41 42 43 44 45 46 47 48 49 50 51 52 53 54 55 56 57 58 59 60 61 62 63 64 65 66 67 68 69 70 71 72 73 74 75 76 77 78 79 80 81 82 83 84 85 86 87 88 89 90 91 92 93 94 95 96 97 98 99 100 101 102 103 104 105 106 107 108 109 110 111 112 113 114 115 116 117 118 119 120 121 122 123 124 125 126 127 128 129 130 131 132 133 134 135 136 137 138 139 140 141 142 143 144 145 146 147 148 149 150 151 152 153 154 155 156 157 158