Ergebnis 1 bis 1 von 1

Thema: Wild Adapter - OVA [Jap-Dub][Ger-Sub][480p-8Bit/10Bit][DVDRip] - SHFS

Dieser Thread wurde noch nicht bewertet. Bewerte ihn doch, wenn er dir gefällt!
  1. #1
    Uploader Avatar von Filbo11
    Registriert seit
    Jan 2015
    Beiträge
    926
    Punkte
    17.174
    Errungenschaften:
    TomodachisErste Gruppe1 Jahr registriertCreated Album picturesTagger First Class

    Wild Adapter - OVA [Jap-Dub][Ger-Sub][480p-8Bit/10Bit][DVDRip] - SHFS

    Wild Adapter
    ワイルドアダプター




    Beschreibung

    Makoto Kubota nahm im Leben die Dinge nicht all zu ernst oder versuchte seinen Weg zu finden. Als Leiter der Jugendbande der Izumo-Gruppe war er mit Yakuza-Kriege, Mahjong und Attentaten beschäftigt… Bis zu dem Tag, als er auf eine seltsame Droge namens Wild Adapter stieß, die bizarre Nebenwirkungen bis hin zum Tod mit sich zieht. Nicht nur die Droge, sondern auch die ungleiche Kameradschaft mit dem Herumstreicher Minoru Tokito, verändert Kubotas Leben drastisch. Die Beiden zieht es immer tiefer in das Geheimnis der Wild Adapter hinein…


    Format: mkv
    Dauer: ca. 28 min
    Größe: ca. 194 & 236 MB [8Bit] / 136 & 165 MB [10Bit]
    Episodenanzahl: 2/2
    Sprache: Japanisch
    Untertitel: Deutsch
    Group: [Shiroi-Fansubs]
    Hoster: Uploaded.net & Share-Online.biz
    kein PW


    Screenshots & MediaInfo

    8Bit
    [Links sind nur für registrierte und aktivierte Nutzer sichtbar. Klicke hier um dich zu registrieren.]

    Code:
    General
    
    Complete name               : [SHFS] Wild Adapter - OVA 1v2 (DVD, 8bit, x264, AAC)[36C9A293].mkv
    Format                      : Matroska
    Format version              : Version 4 / Version 2
    File size                   : 194 MiB
    Duration                    : 26mn 52s
    Overall bit rate            : 1 012 Kbps
    Movie name                  : [SHFS] Wild Adapter - OVA 1v2 (DVD, 8bit, x264, AAC) German Sub
    Encoded date                : UTC 2016-04-04 05:37:32
    Writing application         : mkvmerge v8.9.0 ('Father Daughter') 64bit
    Writing library             : libebml v1.3.3 + libmatroska v1.4.4
    
    Video
    ID                          : 1
    Format                      : AVC
    Format/Info                 : Advanced Video Codec
    Format profile              : [email protected]
    Format settings, CABAC      : Yes
    Format settings, ReFrames   : 8 frames
    Codec ID                    : V_MPEG4/ISO/AVC
    Duration                    : 26mn 52s
    Bit rate                    : 842 Kbps
    Width                       : 720 pixels
    Height                      : 480 pixels
    Display aspect ratio        : 3:2
    Frame rate mode             : Constant
    Frame rate                  : 19.181 fps
    Color space                 : YUV
    Chroma subsampling          : 4:2:0
    Bit depth                   : 8 bits
    Scan type                   : Progressive
    Bits/(Pixel*Frame)          : 0.127
    Stream size                 : 162 MiB (83%)
    Writing library             : x264 core 146 r2538kMod 121396c
    Encoding settings           : cabac=1 / ref=8 / deblock=1:-1:-2 / analyse=0x3:0x133 / me=umh / subme=10 / psy=1 / fade_compensate=0.00 / psy_rd=0.80:0.10 / mixed_ref=1 / me_range=32 / chroma_me=1 / trellis=2 / 8x8dct=1 / cqm=0 / deadzone=21,11 / fast_pskip=1 / chroma_qp_offset=-3 / threads=3 / lookahead_threads=1 / sliced_threads=0 / nr=0 / decimate=1 / interlaced=0 / bluray_compat=0 / constrained_intra=0 / fgo=0 / bframes=16 / b_pyramid=2 / b_adapt=2 / b_bias=0 / direct=3 / weightb=1 / open_gop=0 / weightp=2 / keyint=240 / keyint_min=19 / scenecut=40 / intra_refresh=0 / rc_lookahead=75 / rc=crf / mbtree=1 / crf=15.5000 / qcomp=0.60 / qpmin=0 / qpmax=69 / qpstep=4 / ip_ratio=1.40 / aq=2:0.80
    Language                    : Japanese
    Default                     : Yes
    Forced                      : No
    
    Audio
    ID                          : 2
    Format                      : AAC
    Format/Info                 : Advanced Audio Codec
    Format profile              : LC
    Codec ID                    : A_AAC
    Duration                    : 26mn 52s
    Bit rate                    : 168 Kbps
    Channel(s)                  : 2 channels
    Channel positions           : Front: L R
    Sampling rate               : 48.0 KHz
    Frame rate                  : 46.875 fps (1024 spf)
    Compression mode            : Lossy
    Delay relative to video     : 20ms
    Stream size                 : 32.2 MiB (17%)
    Title                       : Japanisch
    Language                    : Japanese
    Default                     : Yes
    Forced                      : No
    
    Menu
    00:00:00.000                : :Vorspann
    00:00:50.414                : :Opening
    00:02:19.305                : :Teil 1
    00:12:33.304                : :Teil 2
    00:25:16.567                : :Ending


    10Bit
    [Links sind nur für registrierte und aktivierte Nutzer sichtbar. Klicke hier um dich zu registrieren.]

    Code:
    General
    
    Complete name               : [SHFS] Wild Adapter - OVA 1 (DVD, 10bit, x264, AAC)[BD717F5D].mkv
    Format                      : Matroska
    Format version              : Version 4 / Version 2
    File size                   : 137 MiB
    Duration                    : 26mn 52s
    Overall bit rate            : 713 Kbps
    Movie name                  : [SHFS] Wild Adapter - OVA 1 (DVD, 10bit, x264, AAC) German Sub
    Encoded date                : UTC 2016-04-04 08:58:49
    Writing application         : mkvmerge v8.9.0 ('Father Daughter') 64bit
    Writing library             : libebml v1.3.3 + libmatroska v1.4.4
    Attachments                 : OptimaLTStd-DemiBold.otf
    
    Video
    ID                          : 1
    Format                      : AVC
    Format/Info                 : Advanced Video Codec
    Format profile              : High [email protected]
    Format settings, CABAC      : Yes
    Format settings, ReFrames   : 8 frames
    Codec ID                    : V_MPEG4/ISO/AVC
    Duration                    : 26mn 52s
    Bit rate                    : 542 Kbps
    Width                       : 720 pixels
    Height                      : 480 pixels
    Display aspect ratio        : 3:2
    Frame rate mode             : Constant
    Frame rate                  : 19.181 fps
    Color space                 : YUV
    Chroma subsampling          : 4:2:0
    Bit depth                   : 10 bits
    Scan type                   : Progressive
    Bits/(Pixel*Frame)          : 0.082
    Stream size                 : 104 MiB (76%)
    Writing library             : x264 core 142 r2431+42 c69a006 tMod [[email protected] X86_64]
    Encoding settings           : cabac=1 / ref=8 / deblock=1:-1:-2 / analyse=0x3:0x133 / me=umh / subme=10 / psy=1 / fade_compensate=0.00 / psy_rd=0.70:0.10 / mixed_ref=1 / me_range=32 / chroma_me=1 / trellis=2 / 8x8dct=1 / cqm=0 / deadzone=21,11 / fast_pskip=1 / chroma_qp_offset=-3 / threads=3 / lookahead_threads=1 / sliced_threads=0 / nr=0 / decimate=1 / interlaced=0 / bluray_compat=0 / constrained_intra=0 / fgo=0 / bframes=16 / b_pyramid=2 / b_adapt=2 / b_bias=0 / direct=3 / weightb=1 / open_gop=0 / weightp=2 / keyint=240 / keyint_min=19 / scenecut=40 / intra_refresh=0 / rc_lookahead=50 / rc=crf / mbtree=1 / crf=17.5000 / qcomp=0.60 / qpmin=0:0:0 / qpmax=81:81:81 / qpstep=4 / ip_ratio=1.40 / aq=2:0.82 / aq-sensitivity=10.00 / aq-factor=1.00:1.00:1.00 / aq2=0 / aq3=0
    Language                    : Japanese
    Default                     : Yes
    Forced                      : No
    
    Audio
    ID                          : 3
    Format                      : AAC
    Format/Info                 : Advanced Audio Codec
    Format profile              : LC
    Codec ID                    : A_AAC
    Duration                    : 26mn 52s
    Bit rate                    : 168 Kbps
    Channel(s)                  : 2 channels
    Channel positions           : Front: L R
    Sampling rate               : 48.0 KHz
    Frame rate                  : 46.875 fps (1024 spf)
    Compression mode            : Lossy
    Delay relative to video     : 20ms
    Stream size                 : 32.2 MiB (24%)
    Title                       : Japanisch
    Language                    : Japanese
    Default                     : Yes
    Forced                      : No
    
    Text
    ID                          : 2
    Format                      : ASS
    Codec ID                    : S_TEXT/ASS
    Codec ID/Info               : Advanced Sub Station Alpha
    Duration                    : 24mn 47s
    Bit rate                    : 252 bps
    Count of elements           : 427
    Compression mode            : Lossless
    Stream size                 : 45.8 KiB (0%)
    Title                       : Deutsch
    Language                    : German
    Default                     : Yes
    Forced                      : No
    
    Menu
    00:00:00.000                : :Vorspann
    00:00:50.414                : :Opening
    00:02:19.305                : :Teil 1
    00:12:33.304                : :Teil 2
    00:25:16.567                : :Ending


    Alle Mirrors untereinander kompatibel
    Folgen einzeln ladbar


    Download
    Geschützter Bereich - Bedanke dich beim Poster, um den Bereich sehen zu können
    Hier erfährst Du wie Du Dich bedanken kannst oder werde jetzt Premium Mitglied ab einer Spende von 5€ und erhalte sofortigen Zugriff auf den Downloadbereich!


    Geändert von Filbo11 (12. April 2016 um 09:14 Uhr)

    [Links sind nur für registrierte und aktivierte Nutzer sichtbar. Klicke hier um dich zu registrieren.]

    Ich wäre allen sehr dankbar, die mir gravierende Fehler in meinen Releases per PN melden

  2. 3 Benutzer sagen Danke:

    eraz (5. April 2016),Nanatzusaya (5. April 2016),yoda85 (4. April 2016)

Stichworte

Lesezeichen

Berechtigungen

  • Neue Themen erstellen: Nein
  • Themen beantworten: Nein
  • Anhänge hochladen: Nein
  • Beiträge bearbeiten: Nein
  •  

1 2 3 4 5 6 7 8 9 10 11 12 13 14 15 16 17 18 19 20 21 22 23 24 25 26 27 28 29 30 31 32 33 34 35 36 37 38 39 40 41 42 43 44 45 46 47 48 49 50 51 52 53 54 55 56 57 58 59 60 61 62 63 64 65 66 67 68 69 70 71 72 73 74 75 76 77 78 79 80 81 82 83 84 85 86 87 88 89 90 91 92 93 94 95 96 97 98 99 100 101 102 103 104 105 106 107 108 109 110 111 112 113 114 115 116 117 118 119 120 121 122 123 124 125 126 127 128 129 130 131 132 133 134 135 136 137 138 139 140 141 142 143 144 145 146 147 148 149 150 151 152 153 154 155 156 157 158