Ergebnis 1 bis 3 von 3

Thema: Working'!! (S2) [Jap-Dub][Ger-Sub][720p/1080p][BluRay]

Dieser Thread wurde noch nicht bewertet. Bewerte ihn doch, wenn er dir gefällt!
  1. #1
    Kami-sama Avatar von galudo
    Registriert seit
    Mar 2015
    Beiträge
    1.371
    Punkte
    26.064
    Errungenschaften:
    TomodachisTagger ProfiHyperaktivSenpaiGang Leader

    Working'!! (S2) [Jap-Dub][Ger-Sub][720p/1080p][BluRay]

    Working'!!
    ワーキング'!!
    Wagnaria!!2




    Kurzbeschreibung:
    Zitat Zitat von AniSearch.com
    Ein neuer Arbeitstag beginnt im beliebten Familienrestaurant Wagnaria. Auch die Belegschaft versammelt sich wieder, darunter Souta Takanashi, der eine Vorliebe für alles kleine und niedliche hat, Poplar Taneshima, die mit ihrer Körpergröße zu kämpfen hat und Mahiru Inami, die wegen ihrer Androphobie in Kombination mit ihrer außerordentlichen Stärke vor allem dem männlichen Personal, allen voran Takanashi, das Leben schwer macht. Auch die anderen Mitarbeiter weichen von der allgemeinen Vorstellung eines Restaurants eher ab. Die Managerin Kyouko Shirafuji beschäftigt sich lieber mit ihrem Eisbecher als der Leitung der Geschäfte, Yachiyo Todoroki, die eigentlich ganz normal wirkt, würde sie nicht ständig ein Katana mit sich herumtragen und noch vielen anderen. So ein wilder und verrückter Haufen sorgt natürlich für allerhand Chaos und Abwechslung im sonst so ruhigen Arbeitsalltag.
    Spieldauer: 22min
    Genre: Komödie
    Nebengenres: Alltagsleben, Komödie
    Jahr: 2011
    Sprache: Japanisch
    Untertitel: Deutsch(HardSub)
    Größe pro Folge: ~265 MiB ~506 MiB
    Source: BluRay
    Format: MKV, MP4
    Auflösung: 720p (16:9), 1080p (16:9)
    Videocodec: x264 (AVC)
    Audiocodec: AAC
    Subgruppe / Releasegruppe: Taiyo&C-Subs

    Hoster: Share-Online | Uploaded
    Passwort: siehe unten


    MediaInfo
    720p
    Code:
    
    Format                                   : Matroska
    Format version                           : Version 2
    File size                                : 265 MiB
    Duration                                 : 24mn 19s
    Overall bit rate mode                    : Variable
    Overall bit rate                         : 1 522 Kbps
    Encoded date                             : UTC 2012-07-12 23:52:22
    Writing application                      : mkvmerge v5.2.1 ('A Far Off Place') built on Jan  2 2012 23:21:10
    Writing library                          : libebml v1.2.3 + libmatroska v1.3.0
    
    Video
    ID                                       : 1
    Format                                   : AVC
    Format/Info                              : Advanced Video Codec
    Format profile                           : [email protected]
    Format settings, CABAC                   : Yes
    Format settings, ReFrames                : 3 frames
    Codec ID                                 : V_MPEG4/ISO/AVC
    Duration                                 : 24mn 19s
    Bit rate mode                            : Variable
    Maximum bit rate                         : 40.0 Mbps
    Width                                    : 1 280 pixels
    Height                                   : 720 pixels
    Display aspect ratio                     : 16:9
    Frame rate mode                          : Constant
    Frame rate                               : 23.976 fps
    Color space                              : YUV
    Chroma subsampling                       : 4:2:0
    Bit depth                                : 8 bits
    Scan type                                : Progressive
    Writing library                          : x264 core 120 r2164 da19765
    Encoding settings                        : cabac=1 / ref=4 / deblock=1:0:0 / analyse=0x3:0x113 / me=hex / subme=7 / psy=1 / psy_rd=1.00:0.00 / mixed_ref=1 / me_range=16 / chroma_me=1 / trellis=1 / 8x8dct=1 / cqm=0 / deadzone=21,11 / fast_pskip=1 / chroma_qp_offset=-2 / threads=12 / sliced_threads=0 / slices=4 / nr=0 / decimate=1 / interlaced=0 / bluray_compat=0 / constrained_intra=0 / bframes=3 / b_pyramid=1 / b_adapt=1 / b_bias=0 / direct=1 / weightb=1 / open_gop=0 / weightp=0 / keyint=23 / keyint_min=1 / scenecut=40 / intra_refresh=0 / rc_lookahead=23 / rc=crf / mbtree=0 / crf=20.0 / qcomp=0.60 / qpmin=10 / qpmax=51 / qpstep=4 / vbv_maxrate=40000 / vbv_bufsize=30000 / crf_max=0.0 / nal_hrd=vbr / ip_ratio=1.40 / pb_ratio=1.30 / aq=0
    Language                                 : English
    Default                                  : Yes
    Forced                                   : No
    
    Audio
    ID                                       : 2
    Format                                   : AAC
    Format/Info                              : Advanced Audio Codec
    Format profile                           : HE-AAC / LC
    Codec ID                                 : A_AAC
    Duration                                 : 24mn 19s
    Channel(s)                               : 2 channels
    Channel positions                        : Front: L R
    Sampling rate                            : 48.0 KHz / 24.0 KHz
    Compression mode                         : Lossy
    Language                                 : Japanese
    Default                                  : Yes
    Forced                                   : No
    
    


    1080p
    Code:
    
    Format                                   : MPEG-4
    Format profile                           : Base Media
    Codec ID                                 : isom
    File size                                : 506 MiB
    Duration                                 : 24mn 19s
    Overall bit rate mode                    : Variable
    Overall bit rate                         : 2 909 Kbps
    Encoded date                             : UTC 2012-07-13 15:48:41
    Tagged date                              : UTC 2012-07-13 15:48:41
    
    Video
    ID                                       : 1
    Format                                   : AVC
    Format/Info                              : Advanced Video Codec
    Format profile                           : [email protected]
    Format settings, CABAC                   : Yes
    Format settings, ReFrames                : 3 frames
    Codec ID                                 : avc1
    Codec ID/Info                            : Advanced Video Coding
    Duration                                 : 24mn 18s
    Bit rate mode                            : Variable
    Bit rate                                 : 2 778 Kbps
    Maximum bit rate                         : 40.0 Mbps
    Width                                    : 1 920 pixels
    Height                                   : 1 080 pixels
    Display aspect ratio                     : 16:9
    Frame rate mode                          : Constant
    Frame rate                               : 23.976 fps
    Color space                              : YUV
    Chroma subsampling                       : 4:2:0
    Bit depth                                : 8 bits
    Scan type                                : Progressive
    Bits/(Pixel*Frame)                       : 0.056
    Stream size                              : 483 MiB (95%)
    Writing library                          : x264 core 120 r2164 da19765
    Encoding settings                        : cabac=1 / ref=4 / deblock=1:0:0 / analyse=0x3:0x113 / me=hex / subme=7 / psy=1 / psy_rd=1.00:0.00 / mixed_ref=1 / me_range=16 / chroma_me=1 / trellis=1 / 8x8dct=1 / cqm=0 / deadzone=21,11 / fast_pskip=1 / chroma_qp_offset=-2 / threads=12 / sliced_threads=0 / slices=4 / nr=0 / decimate=1 / interlaced=0 / bluray_compat=0 / constrained_intra=0 / bframes=3 / b_pyramid=1 / b_adapt=1 / b_bias=0 / direct=1 / weightb=1 / open_gop=0 / weightp=0 / keyint=23 / keyint_min=1 / scenecut=40 / intra_refresh=0 / rc_lookahead=23 / rc=crf / mbtree=0 / crf=20.0 / qcomp=0.60 / qpmin=10 / qpmax=51 / qpstep=4 / vbv_maxrate=40000 / vbv_bufsize=30000 / crf_max=0.0 / nal_hrd=vbr / ip_ratio=1.40 / pb_ratio=1.30 / aq=0
    Encoded date                             : UTC 2012-07-12 23:26:18
    Tagged date                              : UTC 2012-07-13 15:49:06
    
    Audio
    ID                                       : 2
    Format                                   : AAC
    Format/Info                              : Advanced Audio Codec
    Format profile                           : HE-AAC / LC
    Codec ID                                 : 40
    Duration                                 : 24mn 19s
    Bit rate mode                            : Variable
    Bit rate                                 : 128 Kbps
    Maximum bit rate                         : 149 Kbps
    Channel(s)                               : 2 channels
    Channel positions                        : Front: L R
    Sampling rate                            : 48.0 KHz / 24.0 KHz
    Compression mode                         : Lossy
    Stream size                              : 22.2 MiB (4%)
    Language                                 : Japanese
    Encoded date                             : UTC 2012-07-13 15:49:06
    Tagged date                              : UTC 2012-07-13 15:49:06
    
    




    Folgen 13/13 online
    Folgen einzeln ladbar



    || Download & Passwort ||


    Geschützter Bereich - Bedanke dich beim Poster, um den Bereich sehen zu können
    Hier erfährst Du wie Du Dich bedanken kannst oder werde jetzt Premium Mitglied ab einer Spende von 5€ und erhalte sofortigen Zugriff auf den Downloadbereich!

    Weiteres von Working:
    [Links sind nur für registrierte und aktivierte Nutzer sichtbar. Klicke hier um dich zu registrieren.]
    [Links sind nur für registrierte und aktivierte Nutzer sichtbar. Klicke hier um dich zu registrieren.]

    Geändert von galudo (19. October 2016 um 20:56 Uhr) Grund: Reup
    SUPPORT UND REUP ANFRAGEN NUR >> [Links sind nur für registrierte und aktivierte Nutzer sichtbar. Klicke hier um dich zu registrieren.] <<
    Bitte IMMER den Thread-Link mitschicken.

  2. 32 Benutzer sagen Danke:

    2GaMe4LiFe (19. July 2016),Anuy (20. November 2016),Cyberbrain85 (27. October 2016),doublegf (19. September 2015),Drazcan (18. October 2015),dr_fist (26. December 2015),EniMan (3. December 2016),Ghostraven (7. April 2016),Griever (19. October 2016),Hinamori309 (11. February 2016),janik2009 (2. November 2016),Kalchi (19. October 2016),Kuddel (2. February 2016),Magikarp (2. November 2016),McZeRo (17. October 2016),Mitsuma (23. December 2015),MJMax (18. October 2016),MutationACE (12. November 2016),neocx (28. October 2016),Noire16 (13. November 2016),Paraxamos (25. July 2016),Paulus (30. December 2015),Piwi (3. June 2016),PS Freak (23. February 2016),rekiznuh1 (5. November 2016),sangheilie (11. February 2016),Scorns (26. September 2016),SONNYxq (12. January 2016),Tabuadelo (27. October 2016),torusso12 (11. June 2016),Tschu23 (8. September 2015),Wölfchen (15. October 2016)

  3. #2
    United we Stand Avatar von 00Ryuji00
    Registriert seit
    Oct 2012
    Beiträge
    3.903
    Punkte
    100.261
    Errungenschaften:
    TomodachisGang LeaderHikikomoriTagger Amateur50000 Erfahrungspunkte

    AW: Working'!! (S2) [Jap-Dub][Ger-Sub][720p][1080p][BluRay]


    Working'!!
    Wagnaria!! Season 2
    Working 2






    Kurzbeschreibung:
    Zitat Zitat von AniSearch.com
    Ein neuer Arbeitstag beginnt im beliebten Familienrestaurant Wagnaria. Auch die Belegschaft versammelt sich wieder, darunter Souta Takanashi, der eine Vorliebe für alles kleine und niedliche hat, Poplar Taneshima, die mit ihrer Körpergröße zu kämpfen hat und Mahiru Inami, die wegen ihrer Androphobie in Kombination mit ihrer außerordentlichen Stärke vor allem dem männlichen Personal, allen voran Takanashi, das Leben schwer macht. Auch die anderen Mitarbeiter weichen von der allgemeinen Vorstellung eines Restaurants eher ab. Die Managerin Kyouko Shirafuji beschäftigt sich lieber mit ihrem Eisbecher als der Leitung der Geschäfte, Yachiyo Todoroki, die eigentlich ganz normal wirkt, würde sie nicht ständig ein Katana mit sich herumtragen und noch vielen anderen. So ein wilder und verrückter Haufen sorgt natürlich für allerhand Chaos und Abwechslung im sonst so ruhigen Arbeitsalltag.


    Spieldauer: 22min
    Genre: Komödie
    Nebengenres: Alltagsleben, Komödie, Männlich
    Jahr: 2011
    Sprache: Japanisch
    Untertitel: Deutsch
    Größe pro Folge: ~265 MiB ~506 MiB
    Episodenanzahl: 13/13
    Format: MKV, MP4
    Auflösung: 720p (16:9), 1080p (16:9)
    Videocodec: x264 (AVC)
    Audiocodec: AAC
    Releasegruppe: Taiyo-Subs & C-Subs
    Hoster: Share-Online, Uploaded


    MediaInfo
    720p
    Code:
    
    Format                                   : Matroska
    Format version                           : Version 2
    File size                                : 265 MiB
    Duration                                 : 24mn 19s
    Overall bit rate mode                    : Variable
    Overall bit rate                         : 1 522 Kbps
    Encoded date                             : UTC 2012-07-12 23:52:22
    Writing application                      : mkvmerge v5.2.1 ('A Far Off Place') built on Jan  2 2012 23:21:10
    Writing library                          : libebml v1.2.3 + libmatroska v1.3.0
    
    Video
    ID                                       : 1
    Format                                   : AVC
    Format/Info                              : Advanced Video Codec
    Format profile                           : [email protected]
    Format settings, CABAC                   : Yes
    Format settings, ReFrames                : 3 frames
    Codec ID                                 : V_MPEG4/ISO/AVC
    Duration                                 : 24mn 19s
    Bit rate mode                            : Variable
    Maximum bit rate                         : 40.0 Mbps
    Width                                    : 1 280 pixels
    Height                                   : 720 pixels
    Display aspect ratio                     : 16:9
    Frame rate mode                          : Constant
    Frame rate                               : 23.976 fps
    Color space                              : YUV
    Chroma subsampling                       : 4:2:0
    Bit depth                                : 8 bits
    Scan type                                : Progressive
    Writing library                          : x264 core 120 r2164 da19765
    Encoding settings                        : cabac=1 / ref=4 / deblock=1:0:0 / analyse=0x3:0x113 / me=hex / subme=7 / psy=1 / psy_rd=1.00:0.00 / mixed_ref=1 / me_range=16 / chroma_me=1 / trellis=1 / 8x8dct=1 / cqm=0 / deadzone=21,11 / fast_pskip=1 / chroma_qp_offset=-2 / threads=12 / sliced_threads=0 / slices=4 / nr=0 / decimate=1 / interlaced=0 / bluray_compat=0 / constrained_intra=0 / bframes=3 / b_pyramid=1 / b_adapt=1 / b_bias=0 / direct=1 / weightb=1 / open_gop=0 / weightp=0 / keyint=23 / keyint_min=1 / scenecut=40 / intra_refresh=0 / rc_lookahead=23 / rc=crf / mbtree=0 / crf=20.0 / qcomp=0.60 / qpmin=10 / qpmax=51 / qpstep=4 / vbv_maxrate=40000 / vbv_bufsize=30000 / crf_max=0.0 / nal_hrd=vbr / ip_ratio=1.40 / pb_ratio=1.30 / aq=0
    Language                                 : English
    Default                                  : Yes
    Forced                                   : No
    
    Audio
    ID                                       : 2
    Format                                   : AAC
    Format/Info                              : Advanced Audio Codec
    Format profile                           : HE-AAC / LC
    Codec ID                                 : A_AAC
    Duration                                 : 24mn 19s
    Channel(s)                               : 2 channels
    Channel positions                        : Front: L R
    Sampling rate                            : 48.0 KHz / 24.0 KHz
    Compression mode                         : Lossy
    Language                                 : Japanese
    Default                                  : Yes
    Forced                                   : No
    
    


    1080p
    Code:
    
    Format                                   : MPEG-4
    Format profile                           : Base Media
    Codec ID                                 : isom
    File size                                : 506 MiB
    Duration                                 : 24mn 19s
    Overall bit rate mode                    : Variable
    Overall bit rate                         : 2 909 Kbps
    Encoded date                             : UTC 2012-07-13 15:48:41
    Tagged date                              : UTC 2012-07-13 15:48:41
    
    Video
    ID                                       : 1
    Format                                   : AVC
    Format/Info                              : Advanced Video Codec
    Format profile                           : [email protected]
    Format settings, CABAC                   : Yes
    Format settings, ReFrames                : 3 frames
    Codec ID                                 : avc1
    Codec ID/Info                            : Advanced Video Coding
    Duration                                 : 24mn 18s
    Bit rate mode                            : Variable
    Bit rate                                 : 2 778 Kbps
    Maximum bit rate                         : 40.0 Mbps
    Width                                    : 1 920 pixels
    Height                                   : 1 080 pixels
    Display aspect ratio                     : 16:9
    Frame rate mode                          : Constant
    Frame rate                               : 23.976 fps
    Color space                              : YUV
    Chroma subsampling                       : 4:2:0
    Bit depth                                : 8 bits
    Scan type                                : Progressive
    Bits/(Pixel*Frame)                       : 0.056
    Stream size                              : 483 MiB (95%)
    Writing library                          : x264 core 120 r2164 da19765
    Encoding settings                        : cabac=1 / ref=4 / deblock=1:0:0 / analyse=0x3:0x113 / me=hex / subme=7 / psy=1 / psy_rd=1.00:0.00 / mixed_ref=1 / me_range=16 / chroma_me=1 / trellis=1 / 8x8dct=1 / cqm=0 / deadzone=21,11 / fast_pskip=1 / chroma_qp_offset=-2 / threads=12 / sliced_threads=0 / slices=4 / nr=0 / decimate=1 / interlaced=0 / bluray_compat=0 / constrained_intra=0 / bframes=3 / b_pyramid=1 / b_adapt=1 / b_bias=0 / direct=1 / weightb=1 / open_gop=0 / weightp=0 / keyint=23 / keyint_min=1 / scenecut=40 / intra_refresh=0 / rc_lookahead=23 / rc=crf / mbtree=0 / crf=20.0 / qcomp=0.60 / qpmin=10 / qpmax=51 / qpstep=4 / vbv_maxrate=40000 / vbv_bufsize=30000 / crf_max=0.0 / nal_hrd=vbr / ip_ratio=1.40 / pb_ratio=1.30 / aq=0
    Encoded date                             : UTC 2012-07-12 23:26:18
    Tagged date                              : UTC 2012-07-13 15:49:06
    
    Audio
    ID                                       : 2
    Format                                   : AAC
    Format/Info                              : Advanced Audio Codec
    Format profile                           : HE-AAC / LC
    Codec ID                                 : 40
    Duration                                 : 24mn 19s
    Bit rate mode                            : Variable
    Bit rate                                 : 128 Kbps
    Maximum bit rate                         : 149 Kbps
    Channel(s)                               : 2 channels
    Channel positions                        : Front: L R
    Sampling rate                            : 48.0 KHz / 24.0 KHz
    Compression mode                         : Lossy
    Stream size                              : 22.2 MiB (4%)
    Language                                 : Japanese
    Encoded date                             : UTC 2012-07-13 15:49:06
    Tagged date                              : UTC 2012-07-13 15:49:06
    
    








    Geschützter Bereich - Bedanke dich beim Poster, um den Bereich sehen zu können
    Hier erfährst Du wie Du Dich bedanken kannst oder werde jetzt Premium Mitglied ab einer Spende von 5€ und erhalte sofortigen Zugriff auf den Downloadbereich!



    [Links sind nur für registrierte und aktivierte Nutzer sichtbar. Klicke hier um dich zu registrieren.]
    Geändert von so1k (12. October 2016 um 20:40 Uhr)
    !!!Alle Anliegen bezüglich Uploads werden nur mit direktem Threadlink zum Angebot bearbeitet!!!

    Re-Uploadanfragen nur per PN - Ihr könnt mir auch Listen schicken

    Re-Uploads folgen nach Anfrage meist am Wochenende

    [Links sind nur für registrierte und aktivierte Nutzer sichtbar. Klicke hier um dich zu registrieren.] | [Links sind nur für registrierte und aktivierte Nutzer sichtbar. Klicke hier um dich zu registrieren.] | >[Links sind nur für registrierte und aktivierte Nutzer sichtbar. Klicke hier um dich zu registrieren.]<
    [Links sind nur für registrierte und aktivierte Nutzer sichtbar. Klicke hier um dich zu registrieren.]

  4. 9 Benutzer sagen Danke:

    Alodas (29. April 2016),ElCapitan (30. March 2016),Goki.Grokus (26. January 2016),kaitokid187 (7. February 2016),McZeRo (17. October 2016),Meistermagier (3. March 2016),MutationACE (12. November 2016),SONNYxq (12. January 2016),Wölfchen (15. October 2016)

  5. #3
    Kami-sama Avatar von galudo
    Registriert seit
    Mar 2015
    Beiträge
    1.371
    Punkte
    26.064
    Errungenschaften:
    TomodachisTagger ProfiHyperaktivSenpaiGang Leader

    AW: Working'!! (S2) [Jap-Dub][Ger-Sub][720p][1080p][BluRay]

    [Links sind nur für registrierte und aktivierte Nutzer sichtbar. Klicke hier um dich zu registrieren.]
    SUPPORT UND REUP ANFRAGEN NUR >> [Links sind nur für registrierte und aktivierte Nutzer sichtbar. Klicke hier um dich zu registrieren.] <<
    Bitte IMMER den Thread-Link mitschicken.

Lesezeichen

Berechtigungen

  • Neue Themen erstellen: Nein
  • Themen beantworten: Nein
  • Anhänge hochladen: Nein
  • Beiträge bearbeiten: Nein
  •  

1 2 3 4 5 6 7 8 9 10 11 12 13 14 15 16 17 18 19 20 21 22 23 24 25 26 27 28 29 30 31 32 33 34 35 36 37 38 39 40 41 42 43 44 45 46 47 48 49 50 51 52 53 54 55 56 57 58 59 60 61 62 63 64 65 66 67 68 69 70 71 72 73 74 75 76 77 78 79 80 81 82 83 84 85 86 87 88 89 90 91 92 93 94 95 96 97 98 99 100 101 102 103 104 105 106 107 108 109 110 111 112 113 114 115 116 117 118 119 120 121 122 123 124 125 126 127 128 129 130 131 132 133 134 135 136 137 138 139 140 141 142 143 144 145 146 147 148 149 150 151 152 153 154 155 156 157 158