Ergebnis 1 bis 1 von 1

Thema: Yawaraka Sangokushi Tsukisase!! Ryofuko-chan [Jap-Dub][Ger-Sub][396p][DVDRip]-GK

Dieser Thread wurde noch nicht bewertet. Bewerte ihn doch, wenn er dir gefällt!
  1. #1
    United we Stand Avatar von 00Ryuji00
    Registriert seit
    Oct 2012
    Beiträge
    3.897
    Punkte
    99.135
    Errungenschaften:
    TomodachisGang LeaderHikikomoriTagger Amateur50000 Erfahrungspunkte

    Yawaraka Sangokushi Tsukisase!! Ryofuko-chan [Jap-Dub][Ger-Sub][396p][DVDRip]-GK


    Yawaraka Sangokushi Tsukisase!! Ryofuko-chan
    やわらか三国志 突き刺せ!! 呂布子ちゃん






    Kurzbeschreibung:
    Zitat Zitat von AniSearch.com
    Es war eine Zeit des Chaos und der Unruhen. Es gab einen tapferen Krieger, der durch das Land preschte und sein Auftreten war wie eines Kriegsgott. Seine Stärke war wie eines Drachen. Doch was ist mit diesem Krieger geschehen? Er landet in der Neuzeit und blickt voller stolz auf seine kräftige Hand. Kräftig? Was ist passiert? Der stolze Krieger, Ryofu Housen, hat nun den Körper eines kleines Mädchens. Mit seinem Diener Chinkyuu lebt Ryofuko-chan, wie er/sie in diesem Körper genannt wird, nun in der Neuzeit. Dass im Alltagsleben Missverständnisse und Probleme entstehen, ist bei Ryofukos Stolz und frecher Art nun wirklich kein Wunder.


    Spieldauer: 26min
    Genre: Komödie
    Nebengenres: Action, Ecchi, Komödie, Magical Girl, Männlich
    Jahr: 2007
    Sprache: Japanisch
    Untertitel: Deutsch
    Größe pro Folge: ~146 MiB
    Episodenanzahl: 4/4
    Format: MKV
    Auflösung: 396p (16:9)
    Videocodec: x264 (AVC)
    Audiocodec: Vorbis
    Releasegruppe: GK
    Hoster: Share-Online, Uploaded


    MediaInfo
    Code:
    
    Format                                   : Matroska
    Format version                           : Version 1
    File size                                : 146 MiB
    Duration                                 : 25mn 6s
    Overall bit rate mode                    : Variable
    Overall bit rate                         : 812 Kbps
    Encoded date                             : UTC 2008-12-27 20:11:05
    Writing application                      : mkvmerge v2.3.0 ('Freak U') built on Sep  8 2008 18:32:16
    Writing library                          : libebml v0.7.7 + libmatroska v0.8.1
    Attachements                             : Oz Handicraft BT.ttf / Champers.ttf
    
    Video
    ID                                       : 1
    Format                                   : AVC
    Format/Info                              : Advanced Video Codec
    Format profile                           : [email protected]
    Format settings, CABAC                   : Yes
    Format settings, ReFrames                : 8 frames
    Codec ID                                 : V_MPEG4/ISO/AVC
    Duration                                 : 25mn 6s
    Bit rate                                 : 683 Kbps
    Width                                    : 704 pixels
    Height                                   : 396 pixels
    Display aspect ratio                     : 16:9
    Frame rate mode                          : Constant
    Frame rate                               : 23.976 fps
    Color space                              : YUV
    Chroma subsampling                       : 4:2:0
    Bit depth                                : 8 bits
    Scan type                                : Progressive
    Bits/(Pixel*Frame)                       : 0.102
    Stream size                              : 123 MiB (84%)
    Writing library                          : x264 core 65 r1057M 5f8a149
    Encoding settings                        : cabac=1 / ref=8 / deblock=0:0:0 / analyse=0x3:0x113 / me=esa / subme=9 / psy_rd=0.6:0.0 / mixed_ref=1 / me_range=32 / chroma_me=1 / trellis=0 / 8x8dct=1 / cqm=0 / deadzone=21,11 / chroma_qp_offset=-2 / threads=3 / nr=0 / decimate=0 / mbaff=0 / bframes=4 / b_pyramid=1 / b_adapt=1 / b_bias=0 / direct=3 / wpredb=1 / keyint=900 / keyint_min=25 / scenecut=40(pre) / rc=crf / crf=19.0 / qcomp=0.60 / qpmin=10 / qpmax=51 / qpstep=4 / ip_ratio=1.40 / pb_ratio=1.30 / aq=1:0.40
    Language                                 : Japanese
    Default                                  : Yes
    Forced                                   : No
    
    Audio
    ID                                       : 2
    Format                                   : Vorbis
    Format settings, Floor                   : 1
    Codec ID                                 : A_VORBIS
    Duration                                 : 25mn 6s
    Bit rate mode                            : Variable
    Bit rate                                 : 112 Kbps
    Channel(s)                               : 2 channels
    Sampling rate                            : 48.0 KHz
    Compression mode                         : Lossy
    Stream size                              : 20.1 MiB (14%)
    Writing library                          : aoTuV b5b  (UTC 2008-07-22)
    Language                                 : Japanese
    Default                                  : Yes
    Forced                                   : No
    
    Text
    ID                                       : 3
    Format                                   : ASS
    Codec ID                                 : S_TEXT/ASS
    Codec ID/Info                            : Advanced Sub Station Alpha
    Compression mode                         : Lossless
    Title                                    : Deutsche Subs
    Language                                 : German
    Default                                  : Yes
    Forced                                   : No
    
    






    Geschützter Bereich - Bedanke dich beim Poster, um den Bereich sehen zu können
    Hier erfährst Du wie Du Dich bedanken kannst oder werde jetzt Premium Mitglied ab einer Spende von 5€ und erhalte sofortigen Zugriff auf den Downloadbereich!



    [Links sind nur für registrierte und aktivierte Nutzer sichtbar. Klicke hier um dich zu registrieren.]
    Geändert von so1k (12. October 2016 um 20:25 Uhr)
    !!!Alle Anliegen bezüglich Uploads werden nur mit direktem Threadlink zum Angebot bearbeitet!!!

    Re-Uploadanfragen nur per PN - Ihr könnt mir auch Listen schicken

    Re-Uploads erfolgen meist innerhalb 24h, kann aber auch bis zu 7 Tage dauern

    [Links sind nur für registrierte und aktivierte Nutzer sichtbar. Klicke hier um dich zu registrieren.] | [Links sind nur für registrierte und aktivierte Nutzer sichtbar. Klicke hier um dich zu registrieren.] | >[Links sind nur für registrierte und aktivierte Nutzer sichtbar. Klicke hier um dich zu registrieren.]<
    [Links sind nur für registrierte und aktivierte Nutzer sichtbar. Klicke hier um dich zu registrieren.]

  2. 4 Benutzer sagen Danke:

    Akio (1. January 2016),bloodyfloh (30. December 2015),midnighter (2. January 2016),prinzvegeta (4. January 2016)

Lesezeichen

Berechtigungen

  • Neue Themen erstellen: Nein
  • Themen beantworten: Nein
  • Anhänge hochladen: Nein
  • Beiträge bearbeiten: Nein
  •  

1 2 3 4 5 6 7 8 9 10 11 12 13 14 15 16 17 18 19 20 21 22 23 24 25 26 27 28 29 30 31 32 33 34 35 36 37 38 39 40 41 42 43 44 45 46 47 48 49 50 51 52 53 54 55 56 57 58 59 60 61 62 63 64 65 66 67 68 69 70 71 72 73 74 75 76 77 78 79 80 81 82 83 84 85 86 87 88 89 90 91 92 93 94 95 96 97 98 99 100 101 102 103 104 105 106 107 108 109 110 111 112 113 114 115 116 117 118 119 120 121 122 123 124 125 126 127 128 129 130 131 132 133 134 135 136 137 138 139 140 141 142 143 144 145 146 147 148 149 150 151 152 153 154 155 156 157 158