Ergebnis 1 bis 1 von 1

Thema: Yoake Mae Yori Ruri Iro Na [Jap-Dub][Ger-Sub][DVDRip]

Dieser Thread wurde noch nicht bewertet. Bewerte ihn doch, wenn er dir gefällt!
  1. #1
    Uploader Avatar von Filbo11
    Registriert seit
    Jan 2015
    Beiträge
    926
    Punkte
    17.174
    Errungenschaften:
    TomodachisErste Gruppe1 Jahr registriertCreated Album picturesTagger First Class

    Yoake Mae Yori Ruri Iro Na [Jap-Dub][Ger-Sub][DVDRip]

    Yoake Mae Yori Ruri Iro Na
    夜明け前より瑠璃色な
    Brighter than Dawning Blue




    Handlung

    Vor langer Zeit besiedelten die Menschen den Mond. Dort wurde das Kingdom of Spheres gegründet. Doch als der Mond die Unabhängigkeit wollte, brach der Ödipus-Krieg aus. Es gab keinen Sieger, nur viele Verluste auf beiden Seiten. Von da an wurde der Kontakt zwischen Mond und Erde auf ein Minimum beschränkt.


    Format: mp4
    Dauer: ca. 24 min (pro folge)
    Größe: ca. 280 MB (insgesamt: 3,2 GB)(12/12)
    Sprache: Japanisch
    Untertitel: Deutsch
    Group: Naked-Subs [NaSu]
    Hoster: Uploaded.net & Share-Online.biz
    kein PW


    Screenshots & MediaInfo

    Spoiler
    [Links sind nur für registrierte und aktivierte Nutzer sichtbar. Klicke hier um dich zu registrieren.]
    [Links sind nur für registrierte und aktivierte Nutzer sichtbar. Klicke hier um dich zu registrieren.]

    MediaInfo
    Code:
    General
    
    Format                      : MPEG-4
    Format profile              : Base Media
    Codec ID                    : isom
    File size                   : 280 MiB
    Duration                    : 23mn 41s
    Overall bit rate mode       : Variable
    Overall bit rate            : 1 654 Kbps
    Encoded date                : UTC 2014-05-11 08:07:21
    Tagged date                 : UTC 2014-05-11 08:07:21
    
    Video
    ID                          : 1
    Format                      : AVC
    Format/Info                 : Advanced Video Codec
    Format profile              : [email protected]
    Format settings, CABAC      : Yes
    Format settings, ReFrames   : 16 frames
    Codec ID                    : avc1
    Codec ID/Info               : Advanced Video Coding
    Duration                    : 23mn 41s
    Bit rate                    : 1 458 Kbps
    Maximum bit rate            : 12.0 Mbps
    Width                       : 768 pixels
    Height                      : 432 pixels
    Display aspect ratio        : 16:9
    Frame rate mode             : Constant
    Frame rate                  : 23.976 fps
    Color space                 : YUV
    Chroma subsampling          : 4:2:0
    Bit depth                   : 8 bits
    Scan type                   : Progressive
    Bits/(Pixel*Frame)          : 0.183
    Stream size                 : 247 MiB (88%)
    Writing library             : x264 core 138 r2358 9e941d1
    Encoding settings           : cabac=1 / ref=16 / deblock=1:1:1 / analyse=0x3:0x133 / me=umh / subme=10 / psy=1 / psy_rd=0.85:0.15 / mixed_ref=1 / me_range=24 / chroma_me=1 / trellis=2 / 8x8dct=1 / cqm=0 / deadzone=21,11 / fast_pskip=1 / chroma_qp_offset=-3 / threads=12 / lookahead_threads=3 / sliced_threads=0 / nr=0 / decimate=1 / interlaced=0 / bluray_compat=0 / constrained_intra=0 / bframes=10 / b_pyramid=2 / b_adapt=2 / b_bias=0 / direct=3 / weightb=1 / open_gop=0 / weightp=2 / keyint=230 / keyint_min=22 / scenecut=40 / intra_refresh=0 / rc_lookahead=60 / rc=2pass / mbtree=1 / bitrate=1458 / ratetol=1.0 / qcomp=0.60 / qpmin=0 / qpmax=69 / qpstep=4 / cplxblur=20.0 / qblur=0.5 / ip_ratio=1.40 / aq=1:0.60
    Encoded date                : UTC 2014-05-11 08:02:56
    Tagged date                 : UTC 2014-05-11 08:07:22
    
    Audio
    ID                          : 2
    Format                      : AAC
    Format/Info                 : Advanced Audio Codec
    Format profile              : LC
    Codec ID                    : 40
    Duration                    : 23mn 41s
    Bit rate mode               : Variable
    Bit rate                    : 192 Kbps
    Maximum bit rate            : 200 Kbps
    Channel(s)                  : 2 channels
    Channel positions           : Front: L R
    Sampling rate               : 48.0 KHz
    Compression mode            : Lossy
    Stream size                 : 32.7 MiB (12%)
    Encoded date                : UTC 2014-05-11 07:33:05
    Tagged date                 : UTC 2014-05-11 08:07:22
    
    Menu
    00:00:00.000                : Opening
    00:01:30.215                : 01 Die Prinzessin kommt für einen Gastaufenthalt!?
    00:21:55.605                : Ending
    00:23:25.070                : Vorschau





    Download
    Geschützter Bereich - Bedanke dich beim Poster, um den Bereich sehen zu können
    Hier erfährst Du wie Du Dich bedanken kannst oder werde jetzt Premium Mitglied ab einer Spende von 5€ und erhalte sofortigen Zugriff auf den Downloadbereich!

    Geändert von Filbo11 (12. April 2016 um 10:22 Uhr)

    [Links sind nur für registrierte und aktivierte Nutzer sichtbar. Klicke hier um dich zu registrieren.]

    Ich wäre allen sehr dankbar, die mir gravierende Fehler in meinen Releases per PN melden

  2. 19 Benutzer sagen Danke:

    Akio (25. November 2015),Aluaran (16. March 2015),Avenger2201 (22. March 2015),Bloodywaffe (20. November 2015),Drachengott (16. March 2015),Dylan (15. March 2015),exterminus (15. March 2015),hacime (15. March 2015),Kosuda-kun (8. February 2016),krasserGaul (15. March 2015),Manuk (23. April 2015),McZeRo (18. September 2015),midnighter (18. March 2015),Modell_Thomas (9. February 2016),Ronae (21. March 2015),Smasher25 (14. August 2015),SnowCat (16. March 2015),Tekk (16. March 2015),YamiXGhost (15. March 2015)

Stichworte

Lesezeichen

Berechtigungen

  • Neue Themen erstellen: Nein
  • Themen beantworten: Nein
  • Anhänge hochladen: Nein
  • Beiträge bearbeiten: Nein
  •  

1 2 3 4 5 6 7 8 9 10 11 12 13 14 15 16 17 18 19 20 21 22 23 24 25 26 27 28 29 30 31 32 33 34 35 36 37 38 39 40 41 42 43 44 45 46 47 48 49 50 51 52 53 54 55 56 57 58 59 60 61 62 63 64 65 66 67 68 69 70 71 72 73 74 75 76 77 78 79 80 81 82 83 84 85 86 87 88 89 90 91 92 93 94 95 96 97 98 99 100 101 102 103 104 105 106 107 108 109 110 111 112 113 114 115 116 117 118 119 120 121 122 123 124 125 126 127 128 129 130 131 132 133 134 135 136 137 138 139 140 141 142 143 144 145 146 147 148 149 150 151 152 153 154 155 156 157 158