Ergebnis 1 bis 3 von 3

Thema: Yosuga no Sora [Jap-Dub][Ger-Sub][720p][1080p][Bluray]

Dieser Thread wurde noch nicht bewertet. Bewerte ihn doch, wenn er dir gefällt!
  1. #1
    Elite Avatar von Zetsu
    Registriert seit
    May 2013
    Beiträge
    685
    Punkte
    69.455
    Errungenschaften:
    TomodachisKapitänTagger Profi50000 ErfahrungspunkteHikikomori

    Yosuga no Sora [Jap-Dub][Ger-Sub][720p][1080p][Bluray]



    Yosuga no Sora: In Solitude, Where We Are Least Alone.
    ヨスガノソラ In solitude, where we are least alone.






    Kurzbeschreibung
    Nach dem tragischen Verlust ihrer Eltern bei einem Autounfall ziehen die Kasugano Zwillinge in die ländliche Residenz ihrer Großeltern, wo sie früher schon glückliche Sommerferien verbracht haben, um sich dort aus den Scherben ihres bisherigen Lebens eine neue Existenz aufzubauen. Konfrontiert mit einer ungewissen Zukunft, klammert sich Haruka an seine Erinnerungen vergangener Tage und hofft so, die Kraft zu finden, sich um seine von den Ereignissen stark mitgenommene Schwester Sora zu kümmern. Diese versucht die Situation dadurch zu bewältigen, indem sie nur in der Gegenwart lebt und Trost und Sicherheit bei ihrem Bruder sucht. Auf dem Land angekommen, treffen sie auf ihre Freundin aus Kindheitstagen Nao, die über ihre Rückkehr begeistert ist, sowie auf neue Freunde, wie die aufgeweckte Miko Akira und deren Freundin Kazuha oder ihren Klassenkameraden Ryōhei. Doch den Zwillingen steht noch eine schwere Zeit bevor, wobei auch so manche Begebenheit aus der Vergangenheit noch eine größere Rolle spielt.

    ✰ Spieldauer pro Folge: 24 Min. ✰
    ✰ Episodenanzahl: 12 ✰
    ✰ Format: mp4 ✰
    ✰ Source: Bluray ✰
    ✰ Video-Codec: x264 ✰
    ✰ Resolution: 1280 x 720, 1920 x 1080 ✰
    ✰ Sprache: Japanisch ✰
    ✰ Untertitel: Deutsch ✰
    ✰ Größe pro Folge: 300MB (720p), 700MB (1080p) ✰
    ✰ Releaser: NG&HMO ✰
    ✰ Hoster: Share-Online Uploaded ✰


    Details
    Spoiler

    720p
    Spoiler

    PHP-Code:
    General           : [NG&HMO]_Yosuga_no_Sora_-_01v2_[1280x720][H264][CA72AD60]
    Format            MPEG-4 at 1 627 Kbps
    Length            
    300 MiB for 25min 44s 895ms

    Video 
    #0          : 
    Format            AVC 8 bits at 1 493 Kbps
    Aspect            
    1280 x 720 (1.778at 23.976 fps
    Streamsize        
    275 MiB (92%)

    Audio #0          : 
    Format            AAC at 132 Kbps
    Infos             
    2 Kanäle48,0 KHz
    Streamsize        
    24,3 MiB (8%) 
    1080p
    Spoiler

    PHP-Code:
    General           : [NG&HMO]_Yosuga_no_Sora_-_01_[1920x1080][H264][2CDAC44F]
    Format            MPEG-4 at 4 089 Kbps
    Length            
    753 MiB for 25min 44s 895ms

    Video 
    #0          : 
    Format            AVC 8 bits at 3 954 Kbps
    Aspect            
    1920 x 1080 (1.778at 23.976 fps
    Streamsize        
    728 MiB (97%)

    Audio #0          : 
    Format            AAC at 132 Kbps
    Infos             
    2 Kanäle48,0 KHz
    Streamsize        
    24,3 MiB (3%) 




    DOWNLOAD
    Geschützter Bereich - Bedanke dich beim Poster, um den Bereich sehen zu können
    Hier erfährst Du wie Du Dich bedanken kannst oder werde jetzt Premium Mitglied ab einer Spende von 5€ und erhalte sofortigen Zugriff auf den Downloadbereich!


    Geändert von Zetsu (5. September 2014 um 19:53 Uhr)
    Inaktiver Uploader!

    Alle Re-Upload-Anfragen öffentlich im [Links sind nur für registrierte und aktivierte Nutzer sichtbar. Klicke hier um dich zu registrieren.] posten!

  2. 175 Benutzer sagen Danke:

    Anzeigen

    Akio (5. February 2016),Akulti (11. August 2014),Altair91 (2. August 2014),Amedala (22. February 2014),andiB (21. April 2015),Angel86 (15. February 2014),Anileak (3. July 2014),AnimeSubways (8. January 2015),Anna (25. June 2015),ansyeiraso (18. May 2015),Anuy (9. July 2016),Audifreak91 (11. August 2014),Axel87 (22. March 2014),B0PE (14. December 2014),B3nnoX (7. April 2014),Bad.Attitude (27. February 2016),Bizkitfreaky (5. May 2014),Bizzy76 (14. June 2014),BlackLotus (3. January 2015),BlackMekkor (23. August 2015),Bloodywaffe (20. October 2015),Bohnihater (25. August 2014),bokor90 (24. July 2014),Bombur (8. May 2016),Buze (4. May 2016),Cande (Gestern),cfg1340 (9. September 2016),Ch1quita (8. September 2013),Click877 (29. September 2013),Coahoma_inactive (30. March 2014),coldbears48 (29. May 2016),Crowstea (15. October 2013),Cy_Baer (10. January 2016),DaaFloH (31. October 2014),daemon_inactive (1. April 2015),Damasta (15. April 2014),darkkroetchen (30. June 2013),darksera (16. March 2015),Darth Affe (5. January 2014),DarthToast (16. July 2015),data_ghoul (31. May 2014),Degron (27. July 2014),doN1337 (7. December 2015),dreambird1973 (20. February 2016),Dylan (5. April 2014),enfii (25. January 2015),entryx (21. October 2013),Equinox (12. April 2014),Evilsensei (21. July 2015),exo (6. June 2014),exterminus (20. May 2014),Fabi92 (5. February 2014),Fairytales (26. August 2014),FantasticZ (7. May 2016),Filbo11 (14. March 2016),Fleischlaus (13. August 2013),Flint (29. March 2014),Fox Faram (26. April 2016),Gaara (5. February 2016),Gebbi (25. May 2014),GutiHaz_14 (10. March 2014),Herion (19. August 2015),HorrorKaiser (16. February 2014),Infinity8 (29. January 2014),IRazziCz (19. August 2015),IshiFuroito (8. September 2016),isiprimax (24. December 2014),kacperoko (30. April 2015),Kaiton (1. June 2014),Kirdock (12. December 2013),Kitesune (11. August 2014),knuffel (16. April 2016),Kokujou (11. March 2015),Kortest (7. March 2014),Kranzn (28. January 2014),krasserGaul (2. April 2015),Kunkal23 (29. December 2014),Kuraiko55 (30. June 2015),kutschi (1. November 2015),Kyroja (26. July 2013),LawMugen (28. January 2014),LawrenceKraft (12. July 2015),Leopon (16. February 2016),lfsxtreme (10. May 2015),Liz (18. July 2013),lolE (10. January 2015),Lubastos (16. November 2014),LuDeRu (20. September 2013),Lux49 (19. August 2015),Lynexx (12. July 2014),Mallaye (25. December 2014),mariokeks (16. February 2014),MatrixEsl (23. December 2015),merb (18. September 2016),meyno (8. June 2014),midnighter (22. August 2014),misterdsl (10. May 2015),Mitchell (14. September 2014),muffinhunter (5. April 2014),name_noch_nicht_gefunden (19. August 2013),Nanashi (7. May 2015),NeefBenriya (16. June 2016),neocx (11. December 2014),nickssystem (4. April 2015),nitsuj1001 (8. February 2016),nudel (14. July 2014),Okey984 (14. January 2014),Otonashi Yuzuru (10. March 2015),philipp1602 (12. January 2015),Pito (8. March 2014),PS Freak (20. July 2015),Pure (4. July 2015),Quetzal Coatl (16. April 2014),R0b95 (17. April 2015),RaienryuuRgr (13. July 2014),Raven (21. February 2014),Reflux (26. December 2013),rekiznuh1 (27. August 2015),Rekke (13. April 2015),Rhonos (30. April 2015),Ronae (29. December 2013),Roxas-chan (26. May 2014),Roy_Coleman (23. March 2014),Sakamoto (30. August 2014),Sansento (5. December 2013),Scorns (13. January 2015),Se.phi.roth (5. April 2015),sebmori (2. September 2016),SerienStream (28. February 2015),SertiX (21. April 2015),SewoV4 (9. January 2015),Shana:3 (27. April 2014),sharline (19. February 2016),Shenra (13. June 2015),Shirayah (27. April 2014),Silencio (8. April 2016),Skelot (28. August 2015),skieZ (17. July 2013),Skinsuite (14. December 2014),Smasher25 (20. July 2013),SnowCat (25. August 2013),Solah (4. June 2014),SONNYxq (14. March 2016),Spark (3. December 2015),speik128 (2. March 2015),Spotix (3. October 2015),Stoneman (14. October 2013),Stones (17. February 2015),Subroutine (12. July 2014),Sylux (14. September 2015),tacconinja (8. October 2013),TakashiKudo (25. August 2015),Tenma90 (20. January 2015),Térak (19. February 2014),Terrorhasii.x3 (5. June 2016),Tidus18 (4. January 2016),TobsSs (18. October 2014),toter Fisch (27. June 2016),Tr4ck1 (20. June 2014),treffgarnix (6. June 2016),Twyla42 (29. July 2013),Usumaina (16. February 2014),V1rU5 (26. July 2016),wasle1 (29. April 2014),weezy887 (2. March 2015),WhiteStrip (12. September 2013),Wölfchen (17. April 2015),xaxoxix (9. October 2015),Xerx3s (17. January 2014),xXoRAFFIoXx (21. November 2014),Ypselon (17. April 2015),Zapzerap (27. September 2015),zoe#449 (26. November 2015),ZorroXD (3. May 2014),Zyrinda (24. March 2014)

  3. #2
    United we Stand Avatar von 00Ryuji00
    Registriert seit
    Oct 2012
    Beiträge
    3.902
    Punkte
    99.909
    Errungenschaften:
    TomodachisGang LeaderHikikomoriTagger Amateur50000 Erfahrungspunkte

    AW: Yosuga no Sora [Jap-Dub][Ger-Sub][1080p][Bluray]


    Yosuga no Sora: In Solitude, Where We Are Least Alone.
    ヨスガノソラ In solitude, where we are least alone.
    In Solitude Where We Are Least Alone
    Yosuga no Sora






    Kurzbeschreibung:
    Zitat Zitat von AniSearch.com
    Nach dem tragischen Verlust ihrer Eltern bei einem Autounfall ziehen die Kasugano Zwillinge in die ländliche Residenz ihrer Großeltern, wo sie früher schon glückliche Sommerferien verbracht haben, um sich dort aus den Scherben ihres bisherigen Lebens eine neue Existenz aufzubauen. Konfrontiert mit einer ungewissen Zukunft, klammert sich Haruka an seine Erinnerungen vergangener Tage und hofft so, die Kraft zu finden, sich um seine von den Ereignissen stark mitgenommene Schwester Sora zu kümmern. Diese versucht die Situation dadurch zu bewältigen, indem sie nur in der Gegenwart lebt und Trost und Sicherheit bei ihrem Bruder sucht. Auf dem Land angekommen, treffen sie auf ihre Freundin aus Kindheitstagen Nao, die über ihre Rückkehr begeistert ist, sowie auf neue Freunde, wie die aufgeweckte Miko Akira und deren Freundin Kazuha oder ihren Klassenkameraden Ryōhei. Doch den Zwillingen steht noch eine schwere Zeit bevor, wobei auch so manche Begebenheit aus der Vergangenheit noch eine größere Rolle spielt.


    Spieldauer: 25min
    Genre: Sentimentales Drama
    Nebengenres: Drama, Erotik, Harem, Romanze
    Jahr: 2010
    Sprache: Japanisch
    Untertitel: Deutsch
    Größe pro Folge: ~300 MiB ~753 MiB
    Episodenanzahl: 12/12
    Format: MP4
    Auflösung: 720p (16:9), 1080p (16:9)
    Videocodec: x264 (AVC)
    Audiocodec: AAC
    Releasegruppe: NG & HMO
    Hoster: Share-Online, Uploaded


    MediaInfo
    720p
    Code:
    
    Format                                   : MPEG-4
    Format profile                           : Base Media
    Codec ID                                 : isom
    File size                                : 300 MiB
    Duration                                 : 25mn 44s
    Overall bit rate mode                    : Variable
    Overall bit rate                         : 1 627 Kbps
    Encoded date                             : UTC 2011-02-24 17:10:13
    Tagged date                              : UTC 2011-02-24 17:10:13
    
    Video
    ID                                       : 1
    Format                                   : AVC
    Format/Info                              : Advanced Video Codec
    Format profile                           : [email protected]
    Format settings, CABAC                   : Yes
    Format settings, ReFrames                : 3 frames
    Codec ID                                 : avc1
    Codec ID/Info                            : Advanced Video Coding
    Duration                                 : 25mn 44s
    Bit rate                                 : 1 493 Kbps
    Maximum bit rate                         : 16.3 Mbps
    Width                                    : 1 280 pixels
    Height                                   : 720 pixels
    Display aspect ratio                     : 16:9
    Frame rate mode                          : Constant
    Frame rate                               : 23.976 fps
    Color space                              : YUV
    Chroma subsampling                       : 4:2:0
    Bit depth                                : 8 bits
    Scan type                                : Progressive
    Bits/(Pixel*Frame)                       : 0.068
    Stream size                              : 275 MiB (92%)
    Writing library                          : x264 core 112 r1867 22bfd31
    Encoding settings                        : cabac=1 / ref=3 / deblock=1:0:0 / analyse=0x3:0x113 / me=hex / subme=7 / psy=1 / psy_rd=1.00:0.00 / mixed_ref=1 / me_range=16 / chroma_me=1 / trellis=0 / 8x8dct=1 / cqm=0 / deadzone=21,11 / fast_pskip=1 / chroma_qp_offset=-2 / threads=6 / sliced_threads=0 / nr=0 / decimate=1 / interlaced=0 / constrained_intra=0 / bframes=3 / b_pyramid=0 / b_adapt=1 / b_bias=0 / direct=1 / weightb=1 / open_gop=0 / weightp=2 / keyint=250 / keyint_min=23 / scenecut=40 / intra_refresh=0 / rc_lookahead=40 / rc=2pass / mbtree=1 / bitrate=1493 / ratetol=1.0 / qcomp=0.60 / qpmin=10 / qpmax=51 / qpstep=4 / cplxblur=20.0 / qblur=0.5 / vbv_maxrate=31250 / vbv_bufsize=31250 / nal_hrd=none / ip_ratio=1.40 / aq=1:1.00
    Encoded date                             : UTC 2011-02-24 17:10:13
    Tagged date                              : UTC 2011-02-24 17:10:16
    
    Audio
    ID                                       : 2
    Format                                   : AAC
    Format/Info                              : Advanced Audio Codec
    Format profile                           : LC
    Codec ID                                 : 40
    Duration                                 : 25mn 44s
    Bit rate mode                            : Variable
    Bit rate                                 : 132 Kbps
    Maximum bit rate                         : 179 Kbps
    Channel(s)                               : 2 channels
    Channel positions                        : Front: L R
    Sampling rate                            : 48.0 KHz
    Compression mode                         : Lossy
    Stream size                              : 24.3 MiB (8%)
    Encoded date                             : UTC 2011-02-24 17:10:16
    Tagged date                              : UTC 2011-02-24 17:10:16
    
    


    1080p
    Code:
    
    Format                                   : MPEG-4
    Format profile                           : Base Media
    Codec ID                                 : isom
    File size                                : 753 MiB
    Duration                                 : 25mn 44s
    Overall bit rate mode                    : Variable
    Overall bit rate                         : 4 089 Kbps
    Encoded date                             : UTC 2011-02-25 21:39:19
    Tagged date                              : UTC 2011-02-25 21:39:19
    
    Video
    ID                                       : 1
    Format                                   : AVC
    Format/Info                              : Advanced Video Codec
    Format profile                           : [email protected]
    Format settings, CABAC                   : Yes
    Format settings, ReFrames                : 3 frames
    Codec ID                                 : avc1
    Codec ID/Info                            : Advanced Video Coding
    Duration                                 : 25mn 44s
    Bit rate                                 : 3 954 Kbps
    Maximum bit rate                         : 33.8 Mbps
    Width                                    : 1 920 pixels
    Height                                   : 1 080 pixels
    Display aspect ratio                     : 16:9
    Frame rate mode                          : Constant
    Frame rate                               : 23.976 fps
    Color space                              : YUV
    Chroma subsampling                       : 4:2:0
    Bit depth                                : 8 bits
    Scan type                                : Progressive
    Bits/(Pixel*Frame)                       : 0.080
    Stream size                              : 728 MiB (97%)
    Writing library                          : x264 core 112 r1867 22bfd31
    Encoding settings                        : cabac=1 / ref=3 / deblock=1:0:0 / analyse=0x3:0x113 / me=hex / subme=7 / psy=1 / psy_rd=1.00:0.00 / mixed_ref=1 / me_range=16 / chroma_me=1 / trellis=0 / 8x8dct=1 / cqm=0 / deadzone=21,11 / fast_pskip=1 / chroma_qp_offset=-2 / threads=6 / sliced_threads=0 / nr=0 / decimate=1 / interlaced=0 / constrained_intra=0 / bframes=3 / b_pyramid=0 / b_adapt=1 / b_bias=0 / direct=1 / weightb=1 / open_gop=0 / weightp=2 / keyint=250 / keyint_min=23 / scenecut=40 / intra_refresh=0 / rc_lookahead=40 / rc=crf / mbtree=1 / crf=17.0 / qcomp=0.60 / qpmin=10 / qpmax=51 / qpstep=4 / vbv_maxrate=31250 / vbv_bufsize=31250 / crf_max=0.0 / nal_hrd=none / ip_ratio=1.40 / aq=1:1.00
    Encoded date                             : UTC 2011-02-25 21:39:19
    Tagged date                              : UTC 2011-02-25 21:39:31
    
    Audio
    ID                                       : 2
    Format                                   : AAC
    Format/Info                              : Advanced Audio Codec
    Format profile                           : LC
    Codec ID                                 : 40
    Duration                                 : 25mn 44s
    Bit rate mode                            : Variable
    Bit rate                                 : 132 Kbps
    Maximum bit rate                         : 179 Kbps
    Channel(s)                               : 2 channels
    Channel positions                        : Front: L R
    Sampling rate                            : 48.0 KHz
    Compression mode                         : Lossy
    Stream size                              : 24.3 MiB (3%)
    Encoded date                             : UTC 2011-02-25 21:39:30
    Tagged date                              : UTC 2011-02-25 21:39:31
    
    







    Geschützter Bereich - Bedanke dich beim Poster, um den Bereich sehen zu können
    Hier erfährst Du wie Du Dich bedanken kannst oder werde jetzt Premium Mitglied ab einer Spende von 5€ und erhalte sofortigen Zugriff auf den Downloadbereich!


    [Links sind nur für registrierte und aktivierte Nutzer sichtbar. Klicke hier um dich zu registrieren.]
    !!!Alle Anliegen bezüglich Uploads werden nur mit direktem Threadlink zum Angebot bearbeitet!!!

    Re-Uploadanfragen nur per PN - Ihr könnt mir auch Listen schicken

    Re-Uploads erfolgen meist innerhalb 24h, kann aber auch bis zu 7 Tage dauern

    [Links sind nur für registrierte und aktivierte Nutzer sichtbar. Klicke hier um dich zu registrieren.] | [Links sind nur für registrierte und aktivierte Nutzer sichtbar. Klicke hier um dich zu registrieren.] | >[Links sind nur für registrierte und aktivierte Nutzer sichtbar. Klicke hier um dich zu registrieren.]<
    [Links sind nur für registrierte und aktivierte Nutzer sichtbar. Klicke hier um dich zu registrieren.]

  4. 41 Benutzer sagen Danke:

    Androkai (7. September 2016),AnimeSubways (8. January 2015),Bad.Attitude (27. February 2016),Bloodywaffe (20. October 2015),Cande (Gestern),Cy_Baer (10. January 2016),DarthToast (16. July 2015),Degron (27. July 2014),dreambird1973 (20. February 2016),Dylan (5. April 2014),Eight (4. May 2016),FantasticZ (7. May 2016),Filbo11 (13. March 2016),Gaara (5. February 2016),Infi (14. February 2016),Kitesune (11. August 2014),krasserGaul (2. April 2015),Leopon (16. February 2016),Mallaye (25. December 2014),MatrixEsl (23. December 2015),midnighter (22. August 2014),misterdsl (10. May 2015),NeefBenriya (16. June 2016),nitsuj1001 (8. February 2016),Pure (11. July 2016),R0b95 (17. April 2015),Regi (15. September 2016),Roy_Coleman (23. March 2014),Sakamoto (30. August 2014),Sandy7580 (17. November 2016),Se.phi.roth (5. April 2015),sebmori (2. September 2016),SewoV4 (9. January 2015),Silencio (8. April 2016),SnowCat (3. April 2015),SONNYxq (14. March 2016),Spark (3. December 2015),Terrorhasii.x3 (5. June 2016),tzuio (5. May 2016),Windwusel (14. March 2016),Wölfchen (17. April 2015)

  5. #3
    Uploader Avatar von Filbo11
    Registriert seit
    Jan 2015
    Beiträge
    931
    Punkte
    17.255
    Errungenschaften:
    TomodachisErste Gruppe1 Jahr registriertCreated Album picturesTagger First Class

    AW: Yosuga no Sora [Jap-Dub][Ger-Sub][720p][1080p][Bluray]

    Yosuga no Sora: In Solitude, Where We Are Least Alone.
    ヨスガノソラ In solitude, where we are least alone.
    In Solitude Where We Are Least Alone




    Beschreibung

    Nach dem tragischen Verlust ihrer Eltern bei einem Autounfall ziehen die Kasugano Zwillinge in die ländliche Residenz ihrer Großeltern, wo sie früher schon glückliche Sommerferien verbracht haben, um sich dort aus den Scherben ihres bisherigen Lebens eine neue Existenz aufzubauen.


    Format: mp4 [720p/1080p]
    Dauer: ca. 25 min
    Größe: ca. 299 MB [720p] / 600-800 MB [1080p]
    Episodenanzahl: 12/12
    Sprache: Japanisch
    Untertitel: Deutsch
    Group: [Newgene Fansubs & Haramiko]
    Hoster: Uploaded.net & Share-Online.biz
    kein PW


    Screenshots & MediaInfo

    720p
    [Links sind nur für registrierte und aktivierte Nutzer sichtbar. Klicke hier um dich zu registrieren.]

    Code:
    General
    Complete name               : [NG+HMO] Yosuga no Sora 01v2 - Ferne Erinnerungen [x264][720p][CA72AD60].mp4
    Format                      : MPEG-4
    Format profile              : Base Media
    Codec ID                    : isom (isom/avc1)
    File size                   : 300 MiB
    Duration                    : 25mn 44s
    Overall bit rate mode       : Variable
    Overall bit rate            : 1 627 Kbps
    Encoded date                : UTC 2011-02-24 17:10:13
    Tagged date                 : UTC 2011-02-24 17:10:13
    
    Video
    ID                          : 1
    Format                      : AVC
    Format/Info                 : Advanced Video Codec
    Format profile              : [email protected]
    Format settings, CABAC      : Yes
    Format settings, ReFrames   : 3 frames
    Codec ID                    : avc1
    Codec ID/Info               : Advanced Video Coding
    Duration                    : 25mn 44s
    Bit rate                    : 1 493 Kbps
    Maximum bit rate            : 16.3 Mbps
    Width                       : 1 280 pixels
    Height                      : 720 pixels
    Display aspect ratio        : 16:9
    Frame rate mode             : Constant
    Frame rate                  : 23.976 (24000/1001) fps
    Color space                 : YUV
    Chroma subsampling          : 4:2:0
    Bit depth                   : 8 bits
    Scan type                   : Progressive
    Bits/(Pixel*Frame)          : 0.068
    Stream size                 : 275 MiB (92%)
    Writing library             : x264 core 112 r1867 22bfd31
    Encoding settings           : cabac=1 / ref=3 / deblock=1:0:0 / analyse=0x3:0x113 / me=hex / subme=7 / psy=1 / psy_rd=1.00:0.00 / mixed_ref=1 / me_range=16 / chroma_me=1 / trellis=0 / 8x8dct=1 / cqm=0 / deadzone=21,11 / fast_pskip=1 / chroma_qp_offset=-2 / threads=6 / sliced_threads=0 / nr=0 / decimate=1 / interlaced=0 / constrained_intra=0 / bframes=3 / b_pyramid=0 / b_adapt=1 / b_bias=0 / direct=1 / weightb=1 / open_gop=0 / weightp=2 / keyint=250 / keyint_min=23 / scenecut=40 / intra_refresh=0 / rc_lookahead=40 / rc=2pass / mbtree=1 / bitrate=1493 / ratetol=1.0 / qcomp=0.60 / qpmin=10 / qpmax=51 / qpstep=4 / cplxblur=20.0 / qblur=0.5 / vbv_maxrate=31250 / vbv_bufsize=31250 / nal_hrd=none / ip_ratio=1.40 / aq=1:1.00
    Encoded date                : UTC 2011-02-24 17:10:13
    Tagged date                 : UTC 2011-02-24 17:10:16
    
    Audio
    ID                          : 2
    Format                      : AAC
    Format/Info                 : Advanced Audio Codec
    Format profile              : LC
    Codec ID                    : 40
    Duration                    : 25mn 44s
    Bit rate mode               : Variable
    Bit rate                    : 132 Kbps
    Maximum bit rate            : 179 Kbps
    Channel(s)                  : 2 channels
    Channel positions           : Front: L R
    Sampling rate               : 48.0 KHz
    Frame rate                  : 46.875 fps (1024 spf)
    Compression mode            : Lossy
    Stream size                 : 24.3 MiB (8%)
    Encoded date                : UTC 2011-02-24 17:10:16
    Tagged date                 : UTC 2011-02-24 17:10:16


    1080p
    [Links sind nur für registrierte und aktivierte Nutzer sichtbar. Klicke hier um dich zu registrieren.]

    Code:
    General
    Complete name               : [NG+HMO] Yosuga no Sora 01 - Ferne Erinnerungen [x264][1080p][2CDAC44F].mp4
    Format                      : MPEG-4
    Format profile              : Base Media
    Codec ID                    : isom (isom/avc1)
    File size                   : 753 MiB
    Duration                    : 25mn 44s
    Overall bit rate mode       : Variable
    Overall bit rate            : 4 089 Kbps
    Encoded date                : UTC 2011-02-25 21:39:19
    Tagged date                 : UTC 2011-02-25 21:39:19
    
    Video
    ID                          : 1
    Format                      : AVC
    Format/Info                 : Advanced Video Codec
    Format profile              : [email protected]
    Format settings, CABAC      : Yes
    Format settings, ReFrames   : 3 frames
    Codec ID                    : avc1
    Codec ID/Info               : Advanced Video Coding
    Duration                    : 25mn 44s
    Bit rate                    : 3 954 Kbps
    Maximum bit rate            : 33.8 Mbps
    Width                       : 1 920 pixels
    Height                      : 1 080 pixels
    Display aspect ratio        : 16:9
    Frame rate mode             : Constant
    Frame rate                  : 23.976 (24000/1001) fps
    Color space                 : YUV
    Chroma subsampling          : 4:2:0
    Bit depth                   : 8 bits
    Scan type                   : Progressive
    Bits/(Pixel*Frame)          : 0.080
    Stream size                 : 728 MiB (97%)
    Writing library             : x264 core 112 r1867 22bfd31
    Encoding settings           : cabac=1 / ref=3 / deblock=1:0:0 / analyse=0x3:0x113 / me=hex / subme=7 / psy=1 / psy_rd=1.00:0.00 / mixed_ref=1 / me_range=16 / chroma_me=1 / trellis=0 / 8x8dct=1 / cqm=0 / deadzone=21,11 / fast_pskip=1 / chroma_qp_offset=-2 / threads=6 / sliced_threads=0 / nr=0 / decimate=1 / interlaced=0 / constrained_intra=0 / bframes=3 / b_pyramid=0 / b_adapt=1 / b_bias=0 / direct=1 / weightb=1 / open_gop=0 / weightp=2 / keyint=250 / keyint_min=23 / scenecut=40 / intra_refresh=0 / rc_lookahead=40 / rc=crf / mbtree=1 / crf=17.0 / qcomp=0.60 / qpmin=10 / qpmax=51 / qpstep=4 / vbv_maxrate=31250 / vbv_bufsize=31250 / crf_max=0.0 / nal_hrd=none / ip_ratio=1.40 / aq=1:1.00
    Encoded date                : UTC 2011-02-25 21:39:19
    Tagged date                 : UTC 2011-02-25 21:39:31
    
    Audio
    ID                          : 2
    Format                      : AAC
    Format/Info                 : Advanced Audio Codec
    Format profile              : LC
    Codec ID                    : 40
    Duration                    : 25mn 44s
    Bit rate mode               : Variable
    Bit rate                    : 132 Kbps
    Maximum bit rate            : 179 Kbps
    Channel(s)                  : 2 channels
    Channel positions           : Front: L R
    Sampling rate               : 48.0 KHz
    Frame rate                  : 46.875 fps (1024 spf)
    Compression mode            : Lossy
    Stream size                 : 24.3 MiB (3%)
    Encoded date                : UTC 2011-02-25 21:39:30
    Tagged date                 : UTC 2011-02-25 21:39:31


    Alle Mirrors untereinander kompatibel
    Folgen einzeln ladbar


    Download
    Geschützter Bereich - Bedanke dich beim Poster, um den Bereich sehen zu können
    Hier erfährst Du wie Du Dich bedanken kannst oder werde jetzt Premium Mitglied ab einer Spende von 5€ und erhalte sofortigen Zugriff auf den Downloadbereich!



    Geändert von Filbo11 (12. April 2016 um 09:48 Uhr)

    [Links sind nur für registrierte und aktivierte Nutzer sichtbar. Klicke hier um dich zu registrieren.]

    Ich wäre allen sehr dankbar, die mir gravierende Fehler in meinen Releases per PN melden

  6. 12 Benutzer sagen Danke:

    Androkai (7. September 2016),Buze (4. May 2016),Cande (Gestern),God only knows (14. March 2016),Hedeki (29. April 2016),Magikarp (2. September 2016),Pipsargen (Heute),Regi (15. September 2016),SONNYxq (14. March 2016),Terrorhasii.x3 (5. June 2016),tzuio (5. May 2016),Windwusel (14. March 2016)

Lesezeichen

Berechtigungen

  • Neue Themen erstellen: Nein
  • Themen beantworten: Nein
  • Anhänge hochladen: Nein
  • Beiträge bearbeiten: Nein
  •  

1 2 3 4 5 6 7 8 9 10 11 12 13 14 15 16 17 18 19 20 21 22 23 24 25 26 27 28 29 30 31 32 33 34 35 36 37 38 39 40 41 42 43 44 45 46 47 48 49 50 51 52 53 54 55 56 57 58 59 60 61 62 63 64 65 66 67 68 69 70 71 72 73 74 75 76 77 78 79 80 81 82 83 84 85 86 87 88 89 90 91 92 93 94 95 96 97 98 99 100 101 102 103 104 105 106 107 108 109 110 111 112 113 114 115 116 117 118 119 120 121 122 123 124 125 126 127 128 129 130 131 132 133 134 135 136 137 138 139 140 141 142 143 144 145 146 147 148 149 150 151 152 153 154 155 156 157 158