Ergebnis 1 bis 3 von 3

Thema: Yowamushi Pedal: Grande Road [Laufend][Jap-Dub][Ger-Sub][720p][HDTV] - MS

Dieser Thread wurde noch nicht bewertet. Bewerte ihn doch, wenn er dir gefällt!
  1. #1
    Kami-sama Avatar von galudo
    Registriert seit
    Mar 2015
    Beiträge
    1.369
    Punkte
    25.903
    Errungenschaften:
    TomodachisTagger ProfiHyperaktivSenpaiGang Leader

    Yowamushi Pedal: Grande Road [Laufend][Jap-Dub][Ger-Sub][720p][HDTV] - MS

    Yowamushi Pedal: Grande Road
    弱虫ペダル GRANDE ROAD
    Yowamushi Pedal 2
    YowaPeda 2



    Kurzbeschreibung
    Die zweite Staffel setzt übergangslos an die erste an und folgt dem Geschehen um Team Sohoku. Dabei hat der dritte Tag der Interhigh begonnen und die Teams machen sich auf zum Finale.
    Format: MP4
    Sprache: Japanisch
    Untertitel: Deutsch (HardSub)
    Genre: Comedy, Drama, Shounen, Sport
    Größe: ~ 500 MB pro Folge | Gesamtgröße: 1,80 GB
    Dauer: ~ 24 Minuten
    Jahr: 2014
    Video: 720p
    Source: HDTV
    Subgroup / Releasegroup: Matana-Studio

    Hoster: Share-Online | Uploaded
    Passwort: siehe unten
    Onlinestatus:


    Datei-Info
    Spoiler
    Code:
    General
    Complete name                  : [Matana_Studio]Yowamushi Pedal Grande Road - 01.mp4
    Format                         : MPEG-4
    Format profile                 : Base Media
    Codec ID                       : isom
    File size                      : 501 MiB
    Duration                       : 23mn 52s
    Overall bit rate               : 2 932 Kbps
    Encoded date                   : UTC 2016-04-17 16:33:28
    Tagged date                    : UTC 2016-04-17 16:33:28
    
    Video
    ID                             : 1
    Format                         : AVC
    Format/Info                    : Advanced Video Codec
    Format profile                 : [email protected]
    Format settings, CABAC         : Yes
    Format settings, ReFrames      : 8 frames
    Codec ID                       : avc1
    Codec ID/Info                  : Advanced Video Coding
    Duration                       : 23mn 51s
    Bit rate                       : 2 800 Kbps
    Maximum bit rate               : 10.7 Mbps
    Width                          : 1 280 pixels
    Height                         : 720 pixels
    Display aspect ratio           : 16:9
    Frame rate mode                : Constant
    Frame rate                     : 23.976 fps
    Color space                    : YUV
    Chroma subsampling             : 4:2:0
    Bit depth                      : 8 bits
    Scan type                      : Progressive
    Bits/(Pixel*Frame)             : 0.127
    Stream size                    : 478 MiB (96%)
    Writing library                : x264 core 148 r2665 a01e339
    Encoding settings              : cabac=1 / ref=8 / deblock=1:0:0 / analyse=0x3:0x133 / me=umh / subme=9 / psy=1 / psy_rd=1.00:0.00 / mixed_ref=1 / me_range=16 / chroma_me=1 / trellis=2 / 8x8dct=1 / cqm=0 / deadzone=21,11 / fast_pskip=1 / chroma_qp_offset=-2 / threads=6 / lookahead_threads=1 / sliced_threads=0 / nr=0 / decimate=1 / interlaced=0 / bluray_compat=0 / constrained_intra=0 / bframes=3 / b_pyramid=2 / b_adapt=2 / b_bias=0 / direct=3 / weightb=1 / open_gop=0 / weightp=2 / keyint=240 / keyint_min=23 / scenecut=40 / intra_refresh=0 / rc_lookahead=60 / rc=crf / mbtree=1 / crf=18.0 / qcomp=0.60 / qpmin=0 / qpmax=69 / qpstep=4 / ip_ratio=1.40 / aq=1:1.00
    Encoded date                   : UTC 2016-04-17 16:33:28
    Tagged date                    : UTC 2016-04-17 16:33:41
    
    Audio
    ID                             : 2
    Format                         : MPEG Audio
    Format version                 : Version 1
    Format profile                 : Layer 3
    Mode                           : Joint stereo
    Mode extension                 : MS Stereo
    Codec ID                       : .mp3
    Duration                       : 23mn 52s
    Bit rate mode                  : Constant
    Bit rate                       : 128 Kbps
    Maximum bit rate               : 134 Kbps
    Channel(s)                     : 2 channels
    Sampling rate                  : 44.1 KHz
    Compression mode               : Lossy
    Stream size                    : 21.9 MiB (4%)
    Writing library                : LAME3.99r
    Encoding settings              : -m j -V 4 -q 2 -lowpass 17 -b 128
    Encoded date                   : UTC 2016-04-17 16:33:33
    Tagged date                    : UTC 2016-04-17 16:33:41


    Folgen 04 / 24 online
    Folgen einzeln ladbar



    || Download & Passwort ||


    Geschützter Bereich - Bedanke dich beim Poster, um den Bereich sehen zu können
    Hier erfährst Du wie Du Dich bedanken kannst oder werde jetzt Premium Mitglied ab einer Spende von 5€ und erhalte sofortigen Zugriff auf den Downloadbereich!

    Staffel 1 von Yowamushi Pedal:
    [Links sind nur für registrierte und aktivierte Nutzer sichtbar. Klicke hier um dich zu registrieren.]
    Geändert von galudo (12. October 2016 um 18:26 Uhr) Grund: Folgenupdate
    SUPPORT UND REUP ANFRAGEN NUR >> [Links sind nur für registrierte und aktivierte Nutzer sichtbar. Klicke hier um dich zu registrieren.] <<
    Bitte IMMER den Thread-Link mitschicken.

  2. 3 Benutzer sagen Danke:

    Asuka Langley (25. April 2016),DJPAUL1990 (1. May 2016),Mr.Shit (10. November 2016)

  3. #2
    Kami-sama Avatar von galudo
    Registriert seit
    Mar 2015
    Beiträge
    1.369
    Punkte
    25.903
    Errungenschaften:
    TomodachisTagger ProfiHyperaktivSenpaiGang Leader

    AW: Yowamushi Pedal: Grande Road [Laufend][Jap-Dub][Ger-Sub][720p][HDTV] - MS

    Episode 3 Online
    SUPPORT UND REUP ANFRAGEN NUR >> [Links sind nur für registrierte und aktivierte Nutzer sichtbar. Klicke hier um dich zu registrieren.] <<
    Bitte IMMER den Thread-Link mitschicken.

  4. 1 Benutzer sagt Danke:

    Asuka Langley (2. May 2016)

  5. #3
    Kami-sama Avatar von galudo
    Registriert seit
    Mar 2015
    Beiträge
    1.369
    Punkte
    25.903
    Errungenschaften:
    TomodachisTagger ProfiHyperaktivSenpaiGang Leader

    AW: Yowamushi Pedal: Grande Road [Laufend][Jap-Dub][Ger-Sub][720p][HDTV] - MS

    Episode 04 Online
    SUPPORT UND REUP ANFRAGEN NUR >> [Links sind nur für registrierte und aktivierte Nutzer sichtbar. Klicke hier um dich zu registrieren.] <<
    Bitte IMMER den Thread-Link mitschicken.

Stichworte

Lesezeichen

Berechtigungen

  • Neue Themen erstellen: Nein
  • Themen beantworten: Nein
  • Anhänge hochladen: Nein
  • Beiträge bearbeiten: Nein
  •  

1 2 3 4 5 6 7 8 9 10 11 12 13 14 15 16 17 18 19 20 21 22 23 24 25 26 27 28 29 30 31 32 33 34 35 36 37 38 39 40 41 42 43 44 45 46 47 48 49 50 51 52 53 54 55 56 57 58 59 60 61 62 63 64 65 66 67 68 69 70 71 72 73 74 75 76 77 78 79 80 81 82 83 84 85 86 87 88 89 90 91 92 93 94 95 96 97 98 99 100 101 102 103 104 105 106 107 108 109 110 111 112 113 114 115 116 117 118 119 120 121 122 123 124 125 126 127 128 129 130 131 132 133 134 135 136 137 138 139 140 141 142 143 144 145 146 147 148 149 150 151 152 153 154 155 156 157 158