Ergebnis 1 bis 1 von 1

Thema: Yowamushi Pedal [Jap Dub][Ger Sub][720p][HDTV]-PureAnime

Dieser Thread wurde noch nicht bewertet. Bewerte ihn doch, wenn er dir gefällt!
  1. #1
    Kami-sama Avatar von galudo
    Registriert seit
    Mar 2015
    Beiträge
    1.371
    Punkte
    26.002
    Errungenschaften:
    TomodachisTagger ProfiHyperaktivSenpaiGang Leader

    Yowamushi Pedal [Jap Dub][Ger Sub][720p][HDTV]-PureAnime

    Yowamushi Pedal
    弱虫ペダル
    YowaPeda



    Kurzbeschreibung
    Sakamichi Onada ist ein verweichlichter Neuling einer Oberschule, der Anime liebt. Eigentlich wollte er dem Anime-Klub beitreten, doch konnten ihn zwei Klassenkameraden, die bereits bekannte Rennradfahrer sind, davon überzeugen dem Rad-Klub beizutreten. Er unterschätzt das harte Training, um bei einem Rennen zu bestehen, doch dadurch entdeckt er auch sein verborgenes Talent für den Radsport.
    Format: MP4
    Sprache: Japanisch
    Untertitel: Deutsch
    Genre: Comedy Drama Schule Sport
    Größe: ~ 200 MB pro Folge | Gesamtgröße: 8,05 GB
    Dauer: ~ 24 Minuten
    Jahr: 2013/14
    Video: 720p
    Source: HDTV
    Subgroup / Releasegroup: Pure-Ani.me

    Hoster: Share-Online | Uploaded
    Passwort: siehe unten


    Datei-Info
    Spoiler
    Code:
    General
    Format : MPEG-4
    Format profile : Base Media
    Codec ID : isom
    File size : 220 MiB
    Duration : 24mn 32s
    Overall bit rate mode : Variable
    Overall bit rate : 1 252 Kbps
    
    Video
    ID : 1
    Format : AVC
    Format/Info : Advanced Video Codec
    Format profile : [email protected]
    Format settings, CABAC : Yes
    Format settings, ReFrames : 4 frames
    Codec ID : avc1
    Codec ID/Info : Advanced Video Coding
    Duration : 24mn 31s
    Bit rate : 1 088 Kbps
    Maximum bit rate : 8 538 Kbps
    Width : 1 280 pixels
    Height : 720 pixels
    Display aspect ratio : 16:9
    Frame rate mode : Constant
    Frame rate : 23.976 fps
    Color space : YUV
    Chroma subsampling : 4:2:0
    Bit depth : 8 bits
    Scan type : Progressive
    Bits/(Pixel*Frame) : 0.049
    Stream size : 191 MiB (87%)
    Title : ˆ
    Writing library : x264 core 125 r2200 999b753
    
    Audio
    ID : 2
    Format : AAC
    Format/Info : Advanced Audio Codec
    Format profile : LC
    Codec ID : 40
    Duration : 24mn 32s
    Bit rate mode : Variable
    Bit rate : 160 Kbps
    Maximum bit rate : 197 Kbps
    Channel(s) : 2 channels
    Channel positions : Front: L R
    Sampling rate : 44.1 KHz
    Compression mode : Lossy
    Stream size : 28.1 MiB (13%)


    Folgen 38 / 38 online
    Folgen einzeln ladbar



    || Download & Passwort ||
    Geschützter Bereich - Bedanke dich beim Poster, um den Bereich sehen zu können
    Hier erfährst Du wie Du Dich bedanken kannst oder werde jetzt Premium Mitglied ab einer Spende von 5€ und erhalte sofortigen Zugriff auf den Downloadbereich!

    Staffel 2 von Yowamushi Pedal:
    [Links sind nur für registrierte und aktivierte Nutzer sichtbar. Klicke hier um dich zu registrieren.]
    Geändert von galudo (19. April 2016 um 00:22 Uhr)
    SUPPORT UND REUP ANFRAGEN NUR >> [Links sind nur für registrierte und aktivierte Nutzer sichtbar. Klicke hier um dich zu registrieren.] <<
    Bitte IMMER den Thread-Link mitschicken.

  2. 37 Benutzer sagen Danke:

    AKira_Hidaka (1. February 2016),Antipott (20. March 2016),Anvandya (17. October 2015),Asuka Langley (25. April 2016),Batleby (14. April 2016),Bitfire (8. August 2015),BlackPhoenix (30. June 2015),buhmann (15. May 2016),Conopas (4. October 2015),CROYAL (31. July 2016),Dark Justice (26. April 2015),dave_ (21. December 2015),Deshi25 (20. December 2015),Goki.Grokus (21. June 2015),Hiro (19. July 2015),Hyro (13. September 2015),intelatominside (13. August 2015),IshiFuroito (6. March 2016),Kristero (26. May 2016),mar3el (13. July 2015),midnighter (24. April 2015),Mosa (24. January 2016),Mr.Shit (10. November 2016),Nanatzusaya (12. May 2016),Psycho-Shizuka (11. July 2015),Raphael96 (12. April 2016),realmadridcf (2. October 2015),RIMey (10. August 2015),scarven (3. August 2015),Scypher (13. May 2015),SerienStream (11. August 2015),Shadowa (15. June 2015),sparx44 (3. April 2016),StaZ~ (3. October 2015),TheAndi100 (13. August 2015),TheTestzilla (1. May 2015),Yuki+ (16. October 2015)

Stichworte

Lesezeichen

Berechtigungen

  • Neue Themen erstellen: Nein
  • Themen beantworten: Nein
  • Anhänge hochladen: Nein
  • Beiträge bearbeiten: Nein
  •  

1 2 3 4 5 6 7 8 9 10 11 12 13 14 15 16 17 18 19 20 21 22 23 24 25 26 27 28 29 30 31 32 33 34 35 36 37 38 39 40 41 42 43 44 45 46 47 48 49 50 51 52 53 54 55 56 57 58 59 60 61 62 63 64 65 66 67 68 69 70 71 72 73 74 75 76 77 78 79 80 81 82 83 84 85 86 87 88 89 90 91 92 93 94 95 96 97 98 99 100 101 102 103 104 105 106 107 108 109 110 111 112 113 114 115 116 117 118 119 120 121 122 123 124 125 126 127 128 129 130 131 132 133 134 135 136 137 138 139 140 141 142 143 144 145 146 147 148 149 150 151 152 153 154 155 156 157 158