Ergebnis 1 bis 1 von 1

Thema: Zettai Shounen [Jap-Dub][Ger-Sub][480p][DVDRip]

Dieser Thread wurde noch nicht bewertet. Bewerte ihn doch, wenn er dir gefällt!
  1. #1
    Uploader Avatar von Filbo11
    Registriert seit
    Jan 2015
    Beiträge
    931
    Punkte
    17.281
    Errungenschaften:
    TomodachisErste Gruppe1 Jahr registriertCreated Album picturesTagger First Class

    Zettai Shounen [Jap-Dub][Ger-Sub][480p][DVDRip]

    Zettai Shounen
    絶対少年
    Absolute Boy




    Handlung

    Zettai Shounen erzählt die Geschichte zweier gegensätzlicher Menschen, Ayumu Aizawa und Tanigawa Kisa, die beide an ganz unterschiedlichen Orten auf seltsame, mechanische Lebewesen treffen, die sogenannten "material fairies".

    Ayumu besucht seinen Vater in einem ländlichen Dorf und hat zunächst große Schwierigkeiten mit der Atmosphäre und den Bewohnern dieses Ortes zurechtzukommen. Aber nicht nur die Einheimischen verhalten sich mysteriös, in letzter Zeit hat es auch noch andere ungewöhnliche Ereignisse gegeben. Das erlebt Ayumu am eigenen Leib, als er eines Tages auf den kleinen Jungen Wakkun trifft, der von seltsamen leuchtenden Kugeln begleitet wird.


    Format: mp4
    Dauer: ca. 25 min
    Größe: ca. 130 MB (gesamt: 3,32 GB)
    )Episodenanzahl: 26/26
    Sprache: Japanisch
    Untertitel: Deutsch
    Group: [FA] (Info: FA hat beim benennen der folgen das u bei Shounen vergessen.)
    Hoster: Uploaded.net & Share-Online.biz
    kein PW


    Screenshots & MediaInfo

    Spoiler
    [Links sind nur für registrierte und aktivierte Nutzer sichtbar. Klicke hier um dich zu registrieren.]
    [Links sind nur für registrierte und aktivierte Nutzer sichtbar. Klicke hier um dich zu registrieren.]

    Code:
    General
    Complete name               : [FA].Zettai.Shonen.01.[x264,aac,ger.sub]_8612887C.mp4
    Format                      : MPEG-4
    Format profile              : Base Media
    Codec ID                    : isom
    File size                   : 131 MiB
    Duration                    : 25mn 0s
    Overall bit rate mode       : Variable
    Overall bit rate            : 732 Kbps
    Encoded date                : UTC 2008-04-23 05:24:13
    Tagged date                 : UTC 2008-04-23 05:24:13
    
    Video
    ID                          : 1
    Format                      : AVC
    Format/Info                 : Advanced Video Codec
    Format profile              : [email protected]
    Format settings, CABAC      : Yes
    Format settings, ReFrames   : 16 frames
    Codec ID                    : avc1
    Codec ID/Info               : Advanced Video Coding
    Duration                    : 25mn 0s
    Bit rate                    : 630 Kbps
    Maximum bit rate            : 3 525 Kbps
    Width                       : 640 pixels
    Height                      : 480 pixels
    Display aspect ratio        : 4:3
    Frame rate mode             : Constant
    Frame rate                  : 25.000 fps
    Color space                 : YUV
    Chroma subsampling          : 4:2:0
    Bit depth                   : 8 bits
    Scan type                   : Progressive
    Bits/(Pixel*Frame)          : 0.082
    Stream size                 : 113 MiB (86%)
    Writing library             : x264 core 54 svn-635M
    Encoding settings           : cabac=1 / ref=16 / deblock=1:1:1 / analyse=0x3:0x133 / me=umh / subme=7 / brdo=1 / mixed_ref=1 / me_range=16 / chroma_me=1 / trellis=2 / 8x8dct=1 / cqm=0 / deadzone=21,11 / chroma_qp_offset=0 / threads=4 / nr=0 / decimate=1 / mbaff=0 / bframes=3 / b_pyramid=1 / b_adapt=1 / b_bias=0 / direct=3 / wpredb=1 / bime=1 / keyint=250 / keyint_min=25 / scenecut=40(pre) / rc=2pass / bitrate=630 / ratetol=1.0 / rceq='blurCplx^(1-qComp)' / qcomp=0.60 / qpmin=10 / qpmax=51 / qpstep=4 / cplxblur=20.0 / qblur=0.5 / ip_ratio=1.40 / pb_ratio=1.30
    Encoded date                : UTC 2008-04-23 05:24:13
    Tagged date                 : UTC 2008-04-23 05:24:16
    
    Audio
    ID                          : 2
    Format                      : AAC
    Format/Info                 : Advanced Audio Codec
    Format profile              : LC
    Codec ID                    : 40
    Duration                    : 25mn 0s
    Bit rate mode               : Variable
    Bit rate                    : 98.5 Kbps
    Maximum bit rate            : 110 Kbps
    Channel(s)                  : 2 channels
    Channel positions           : Front: L R
    Sampling rate               : 44.1 KHz
    Compression mode            : Lossy
    Stream size                 : 17.6 MiB (13%)
    Encoded date                : UTC 2008-04-23 05:24:15
    Tagged date                 : UTC 2008-04-23 05:24:16


    Alle Mirrors untereinander kompatibel
    Folgen einzeln ladbar


    Download
    Geschützter Bereich - Bedanke dich beim Poster, um den Bereich sehen zu können
    Hier erfährst Du wie Du Dich bedanken kannst oder werde jetzt Premium Mitglied ab einer Spende von 5€ und erhalte sofortigen Zugriff auf den Downloadbereich!


    Geändert von Filbo11 (12. April 2016 um 10:15 Uhr)

    [Links sind nur für registrierte und aktivierte Nutzer sichtbar. Klicke hier um dich zu registrieren.]

    Ich wäre allen sehr dankbar, die mir gravierende Fehler in meinen Releases per PN melden

  2. 9 Benutzer sagen Danke:

    1337nero (31. December 2015),Akio (15. January 2016),Bloodywaffe (11. February 2016),Megamani (3. December 2015),midnighter (22. July 2015),prinzvegeta (28. July 2015),Suigetsu (22. July 2015),Tekk (22. July 2015),Vice (26. July 2015)

Stichworte

Lesezeichen

Berechtigungen

  • Neue Themen erstellen: Nein
  • Themen beantworten: Nein
  • Anhänge hochladen: Nein
  • Beiträge bearbeiten: Nein
  •  

1 2 3 4 5 6 7 8 9 10 11 12 13 14 15 16 17 18 19 20 21 22 23 24 25 26 27 28 29 30 31 32 33 34 35 36 37 38 39 40 41 42 43 44 45 46 47 48 49 50 51 52 53 54 55 56 57 58 59 60 61 62 63 64 65 66 67 68 69 70 71 72 73 74 75 76 77 78 79 80 81 82 83 84 85 86 87 88 89 90 91 92 93 94 95 96 97 98 99 100 101 102 103 104 105 106 107 108 109 110 111 112 113 114 115 116 117 118 119 120 121 122 123 124 125 126 127 128 129 130 131 132 133 134 135 136 137 138 139 140 141 142 143 144 145 146 147 148 149 150 151 152 153 154 155 156 157 158