Ergebnis 1 bis 1 von 1

Thema: Afro Samurai Resurrection [Ger-Eng-Dub][Ger-Sub][1080p][BluRay]-STARS

Dieser Thread wurde noch nicht bewertet. Bewerte ihn doch, wenn er dir gefällt!
  1. #1
    United we Stand Avatar von 00Ryuji00
    Registriert seit
    Oct 2012
    Beiträge
    3.896
    Punkte
    99.519
    Errungenschaften:
    TomodachisGang LeaderHikikomoriTagger Amateur50000 Erfahrungspunkte

    Afro Samurai Resurrection [Ger-Eng-Dub][Ger-Sub][1080p][BluRay]-STARS


    Afro Samurai Resurrection
    アフロサムライ Resurrection
    Afro Samurai: Resurrection






    Kurzbeschreibung:
    Zitat Zitat von AniSearch.com
    Einige Jahre sind nach den Ereignissen der Serie ins Land gezogen. Nach dem Erreichen seines Ziels hat Afro Frieden gefunden. Dieser währt allerdings nicht lange. Die Geister der Vergangenheit scheinen ihn wieder einzuholen. Eines Tages taucht die Schönheit Sio mit ihrem Komplizen auf, um Rache an seinen begangenen Gräueltaten zu üben. So begibt sich der Afro Samurai wieder auf den blutigen Pfad der Rache – nur, dass er diesmal selbst im Visier steht.


    Spieldauer: 97min
    Genre: Fighting-Shounen
    Nebengenres: Action, Fighting-Shounen, Komödie, Scifi, Übermäßige Gewaltdarstellung
    Jahr: 2009
    Sprache: Deutsch, Japanisch
    Untertitel: Deutsch
    Größe pro Folge: ~7.96 GiB
    Episodenanzahl: 1/1
    Format: MKV
    Auflösung: 1080p (16:9)
    Videocodec: x264 (AVC)
    Audiocodec: DTS
    Releasegruppe: STARS
    Hoster: Share-Online, Uploaded


    MediaInfo
    Code:
    
    Format                                   : Matroska
    Format version                           : Version 2
    File size                                : 7.96 GiB
    Duration                                 : 1h 40mn
    Overall bit rate                         : 11.3 Mbps
    Movie name                               : AFRO SAMURAI RESURRECTION - 1080P - STARS
    Encoded date                             : UTC 2009-08-07 01:26:54
    Writing application                      : mkvmerge v2.9.7 ('Tenderness') built on Jul  1 2009 18:43:35
    Writing library                          : libebml v0.7.7 + libmatroska v0.8.1
    
    Video
    ID                                       : 1
    Format                                   : AVC
    Format/Info                              : Advanced Video Codec
    Format profile                           : [email protected]
    Format settings, CABAC                   : Yes
    Format settings, ReFrames                : 4 frames
    Codec ID                                 : V_MPEG4/ISO/AVC
    Duration                                 : 1h 40mn
    Bit rate                                 : 8 306 Kbps
    Width                                    : 1 920 pixels
    Height                                   : 1 080 pixels
    Display aspect ratio                     : 16:9
    Frame rate mode                          : Constant
    Frame rate                               : 23.976 fps
    Color space                              : YUV
    Chroma subsampling                       : 4:2:0
    Bit depth                                : 8 bits
    Scan type                                : Progressive
    Bits/(Pixel*Frame)                       : 0.167
    Stream size                              : 5.68 GiB (71%)
    Writing library                          : x264 core 68 r1183M f21daff
    Encoding settings                        : cabac=1 / ref=4 / deblock=1:0:0 / analyse=0x1:0x131 / me=umh / subme=7 / psy_rd=1.0:0.0 / mixed_ref=1 / me_range=16 / chroma_me=1 / trellis=1 / 8x8dct=0 / cqm=0 / deadzone=21,11 / chroma_qp_offset=-2 / threads=12 / nr=0 / decimate=0 / mbaff=0 / bframes=3 / b_pyramid=1 / b_adapt=1 / b_bias=0 / direct=1 / wpredb=1 / keyint=250 / keyint_min=25 / scenecut=40 / rc=2pass / bitrate=8306 / ratetol=1.0 / qcomp=0.60 / qpmin=10 / qpmax=51 / qpstep=4 / cplxblur=20.0 / qblur=0.5 / ip_ratio=1.40 / pb_ratio=1.30 / aq=1:1.00
    Language                                 : English
    Default                                  : Yes
    Forced                                   : No
    
    Audio #1
    ID                                       : 2
    Format                                   : DTS
    Format/Info                              : Digital Theater Systems
    Mode                                     : 16
    Format settings, Endianness              : Big
    Codec ID                                 : A_DTS
    Duration                                 : 1h 40mn
    Bit rate mode                            : Constant
    Bit rate                                 : 1 509 Kbps
    Channel(s)                               : 6 channels
    Channel positions                        : Front: L C R, Side: L R, LFE
    Sampling rate                            : 48.0 KHz
    Bit depth                                : 16 bits
    Compression mode                         : Lossy
    Stream size                              : 1.06 GiB (13%)
    Title                                    : German DTS
    Language                                 : German
    Default                                  : Yes
    Forced                                   : Yes
    
    Audio #2
    ID                                       : 3
    Format                                   : DTS
    Format/Info                              : Digital Theater Systems
    Mode                                     : 16
    Format settings, Endianness              : Big
    Codec ID                                 : A_DTS
    Duration                                 : 1h 40mn
    Bit rate mode                            : Constant
    Bit rate                                 : 1 509 Kbps
    Channel(s)                               : 6 channels
    Channel positions                        : Front: L C R, Side: L R, LFE
    Sampling rate                            : 48.0 KHz
    Bit depth                                : 16 bits
    Compression mode                         : Lossy
    Stream size                              : 1.06 GiB (13%)
    Title                                    : ENGLISH DTS
    Language                                 : English
    Default                                  : No
    Forced                                   : No
    
    Text #1
    ID                                       : 4
    Format                                   : UTF-8
    Codec ID                                 : S_TEXT/UTF8
    Codec ID/Info                            : UTF-8 Plain Text
    Title                                    : FORCED SUBS
    Language                                 : German
    Default                                  : Yes
    Forced                                   : Yes
    
    Text #2
    ID                                       : 5
    Format                                   : UTF-8
    Codec ID                                 : S_TEXT/UTF8
    Codec ID/Info                            : UTF-8 Plain Text
    Title                                    : GERMAN SUBS
    Language                                 : German
    Default                                  : No
    Forced                                   : No
    
    Menu
    00:00:00.000                             : en:00:00:00.000
    00:10:02.685                             : en:00:10:02.685
    00:18:02.248                             : en:00:18:02.248
    00:28:55.859                             : en:00:28:55.859
    00:37:02.429                             : en:00:37:02.429
    00:50:52.925                             : en:00:50:52.925
    01:00:58.947                             : en:01:00:58.947
    01:08:03.371                             : en:01:08:03.371
    01:18:40.341                             : en:01:18:40.341
    01:25:59.946                             : en:01:25:59.946
    
    




    Geschützter Bereich - Bedanke dich beim Poster, um den Bereich sehen zu können
    Hier erfährst Du wie Du Dich bedanken kannst oder werde jetzt Premium Mitglied ab einer Spende von 5€ und erhalte sofortigen Zugriff auf den Downloadbereich!

    [Links sind nur für registrierte und aktivierte Nutzer sichtbar. Klicke hier um dich zu registrieren.]
    !!!Alle Anliegen bezüglich Uploads werden nur mit direktem Threadlink zum Angebot bearbeitet!!!

    Re-Uploadanfragen nur per PN - Ihr könnt mir auch Listen schicken

    Re-Uploads erfolgen meist innerhalb 24h, kann aber auch bis zu 7 Tage dauern

    [Links sind nur für registrierte und aktivierte Nutzer sichtbar. Klicke hier um dich zu registrieren.] | [Links sind nur für registrierte und aktivierte Nutzer sichtbar. Klicke hier um dich zu registrieren.] | >[Links sind nur für registrierte und aktivierte Nutzer sichtbar. Klicke hier um dich zu registrieren.]<
    [Links sind nur für registrierte und aktivierte Nutzer sichtbar. Klicke hier um dich zu registrieren.]

  2. 21 Benutzer sagen Danke:

    andyb90 (5. May 2016),Arekusu (5. May 2016),bloodman (20. September 2016),inst4gib (30. October 2016),Itachiri (21. May 2016),JackyMono (12. May 2016),JoleenLovesMina (2. June 2016),KaneTheMagic (29. October 2016),Merkartor (6. October 2016),midnighter (11. August 2016),onepiecefreak (21. July 2016),Saiga (23. July 2016),Sait1991 (29. June 2016),Spotix (29. May 2016),TheRealSammie (8. July 2016),tigerhai (5. May 2016),UndeadBan (6. July 2016),V1rU5 (26. July 2016),Wallaby (6. June 2016),Windwusel (4. May 2016),Zapzerap (23. October 2016)

Lesezeichen

Berechtigungen

  • Neue Themen erstellen: Nein
  • Themen beantworten: Nein
  • Anhänge hochladen: Nein
  • Beiträge bearbeiten: Nein
  •  

1 2 3 4 5 6 7 8 9 10 11 12 13 14 15 16 17 18 19 20 21 22 23 24 25 26 27 28 29 30 31 32 33 34 35 36 37 38 39 40 41 42 43 44 45 46 47 48 49 50 51 52 53 54 55 56 57 58 59 60 61 62 63 64 65 66 67 68 69 70 71 72 73 74 75 76 77 78 79 80 81 82 83 84 85 86 87 88 89 90 91 92 93 94 95 96 97 98 99 100 101 102 103 104 105 106 107 108 109 110 111 112 113 114 115 116 117 118 119 120 121 122 123 124 125 126 127 128 129 130 131 132 133 134 135 136 137 138 139 140 141 142 143 144 145 146 147 148 149 150 151 152 153 154 155 156 157 158