Ergebnis 1 bis 1 von 1

Thema: Akira (1988) [Ger-Jap-Dub][DTS-HD MA][TrueHD][Ger-Sub][1080p][x265/HEVC][BluRay]-SantaKlaus

Dieser Thread wurde noch nicht bewertet. Bewerte ihn doch, wenn er dir gefällt!
  1. #1
    Kleiner Experte Avatar von SantaKlaus
    Registriert seit
    Feb 2014
    Beiträge
    103
    Punkte
    5.867
    Errungenschaften:
    Hikikomori5000 Erfahrungspunkte

    Akira (1988) [Ger-Jap-Dub][DTS-HD MA][TrueHD][Ger-Sub][1080p][x265/HEVC][BluRay]-SantaKlaus

    Akira
    アキラ






    Kurzbeschreibung:
    Am 16. Juli 1988 wird fast ganz Tokio in einer gewaltigen nuklearen Explosion vernichtet. Dies ist auch der Beginn des 3. Weltkrieges.

    31 Jahre später, 2019, ist Tokio als Neo-Tokio wieder aufgebaut. In der düsteren Metropole wimmelt es von Gangs und Terroristen, die von der korrupten Regierung nur mühsam mit militärischer Gewalt unter Kontrolle gehalten werden können. Aufstände und brutale Bandenkriege prägen das Leben in den Straßen. Die Freunde Tetsuo und Kaneda sind zwei Jugendliche, die in Neo-Tokio leben. Schule und dergleichen interessieren sie nicht sonderlich, sie machen lieber mit ihrer Motorradgang nachts die Straßen unsicher und liefern sich auf ihren Bikes unerbittliche Kämpfe mit rivalisierenden Gangs. Eines Abends, als sie einen Kampf mit den "Clowns", einer weiteren Gang austragen, trifft Tetsuo auf einen sonderbaren "Jungen". Sein Körper sieht aus wie der eines Kindes, aber das Gesicht ist das eines alten Mannes. Kurze Zeit nach dem Zusammentreffen taucht das Militär auf, nimmt Tetsuo gefangen und führt später an ihm Experimente durch. Durch die Experimente hat Tetsuo starke psychische Kräfte erhalten, die er schon bald nicht mehr kontrollieren kann. Während Kaneda versucht Tetsuo zu befreien, verliert dieser immer mehr die Kontrolle über seine Kräfte.


    Format: 16:9
    Auflösung: 1888x1016
    Source: Blu-ray
    Codec: HEVC x265
    Settings: --crf 16.0
    Hoster: Share-Online
    Ton:
    Deutsch DTS-HD MA 5.1
    Deutsch DTS-HD MA 2.0
    Japanisch Dolby TrueHD 5.1

    Deutsch 5.1= Synchronisation 2005
    Deutsch 2.0= Synchronisation 1991

    Spoiler
    Code:
    General
    Unique ID                   : 248576006836885685714230247101738318804 (0xBB01FF5C5028B25FB66F45EB29B4FBD4)
    Complete name               : \\SPACESERV3R\Anime Movies\Akira (1988)\Akira (1988) [x265].mkv
    Format                      : Matroska
    Format version              : Version 4 / Version 2
    File size                   : 26.6 GiB
    Duration                    : 2h 4mn
    Overall bit rate mode       : Variable
    Overall bit rate            : 30.6 Mbps
    Movie name                  : Akira
    Encoded date                : UTC 2016-03-01 09:06:40
    Writing application         : mkvmerge v8.9.0 ('Father Daughter') 64bit
    Writing library             : libebml v1.3.3 + libmatroska v1.4.4
    
    Video
    ID                          : 1
    Format                      : HEVC
    Format/Info                 : High Efficiency Video Coding
    Format profile              : [email protected]@Main
    Codec ID                    : V_MPEGH/ISO/HEVC
    Duration                    : 2h 4mn
    Bit rate                    : 10.5 Mbps
    Width                       : 1 888 pixels
    Height                      : 1 016 pixels
    Display aspect ratio        : 1.85:1
    Frame rate mode             : Constant
    Frame rate                  : 23.976 (24000/1001) fps
    Color space                 : YUV
    Chroma subsampling          : 4:2:0
    Bit depth                   : 8 bits
    Bits/(Pixel*Frame)          : 0.229
    Stream size                 : 9.15 GiB (34%)
    Writing library             : x265 1.8+2-55a4a9b920ff:[Windows][GCC 5.2.0][64 bit] 8bit+10bit+12bit
    Encoding settings           : wpp / ctu=64 / min-cu-size=8 / max-tu-size=32 / tu-intra-depth=1 / tu-inter-depth=1 / me=1 / subme=2 / merange=57 / no-rect / no-amp / max-merge=2 / temporal-mvp / no-early-skip / rdpenalty=0 / no-tskip / no-tskip-fast / strong-intra-smoothing / no-lossless / no-cu-lossless / no-constrained-intra / no-fast-intra / open-gop / no-temporal-layers / interlace=0 / keyint=250 / min-keyint=23 / scenecut=40 / rc-lookahead=20 / lookahead-slices=0 / bframes=4 / bframe-bias=0 / b-adapt=2 / ref=3 / limit-refs=0 / weightp / no-weightb / aq-mode=1 / qg-size=32 / aq-strength=1.00 / cbqpoffs=0 / crqpoffs=0 / rd=3 / psy-rd=0.30 / rdoq-level=0 / psy-rdoq=0.00 / signhide / deblock / sao / no-sao-non-deblock / b-pyramid / cutree / rc=crf / crf=16.0 / qcomp=0.60 / qpmin=0 / qpmax=51 / qpstep=4 / ipratio=1.40 / pbratio=1.30
    Language                    : Japanese
    Default                     : Yes
    Forced                      : No
    
    Audio #1
    ID                          : 2
    Format                      : DTS
    Format/Info                 : Digital Theater Systems
    Format profile              : MA / Core
    Mode                        : 16
    Format settings, Endianness : Big
    Codec ID                    : A_DTS
    Duration                    : 2h 4mn
    Bit rate mode               : Variable / Constant
    Bit rate                    : 1 411.2 Kbps / 768 Kbps
    Channel(s)                  : 2 channels
    Channel positions           : Front: L R
    Sampling rate               : 48.0 KHz
    Frame rate                  : 93.750 fps (512 spf)
    Bit depth                   : 24 bits
    Compression mode            : Lossless / Lossy
    Stream size                 : 1.24 GiB (5%)
    Title                       : Synchrofassung 1991
    Language                    : German
    Default                     : Yes
    Forced                      : No
    
    Audio #2
    ID                          : 3
    Format                      : DTS
    Format/Info                 : Digital Theater Systems
    Format profile              : MA / Core
    Mode                        : 16
    Format settings, Endianness : Big
    Codec ID                    : A_DTS
    Duration                    : 2h 4mn
    Bit rate mode               : Variable / Constant
    Bit rate                    : 4 206 Kbps / 1 509 Kbps
    Channel(s)                  : 6 channels
    Channel positions           : Front: L C R, Side: L R, LFE
    Sampling rate               : 48.0 KHz
    Frame rate                  : 93.750 fps (512 spf)
    Bit depth                   : 24 bits
    Compression mode            : Lossless / Lossy
    Stream size                 : 3.66 GiB (14%)
    Title                       : Synchrofassung 2005
    Language                    : German
    Default                     : No
    Forced                      : No
    
    Audio #3
    ID                          : 4
    Format                      : TrueHD
    Codec ID                    : A_TRUEHD
    Duration                    : 2h 4mn
    Bit rate mode               : Variable
    Bit rate                    : 14.3 Mbps
    Maximum bit rate            : 17.5 Mbps
    Channel(s)                  : 6 channels
    Channel positions           : Front: L C R, Side: L R, LFE
    Sampling rate               : 192 KHz
    Frame rate                  : 4 800.000 fps (40 spf)
    Bit depth                   : 24 bits
    Compression mode            : Lossless
    Stream size                 : 12.5 GiB (47%)
    Language                    : Japanese
    Default                     : No
    Forced                      : No
    
    Text #1
    ID                          : 5
    Format                      : PGS
    Muxing mode                 : zlib
    Codec ID                    : S_HDMV/PGS
    Codec ID/Info               : Picture based subtitle format used on BDs/HD-DVDs
    Duration                    : 1h 8mn
    Bit rate                    : 154 bps
    Count of elements           : 22
    Stream size                 : 77.1 KiB (0%)
    Language                    : German
    Default                     : Yes
    Forced                      : Yes
    
    Text #2
    ID                          : 6
    Format                      : PGS
    Muxing mode                 : zlib
    Codec ID                    : S_HDMV/PGS
    Codec ID/Info               : Picture based subtitle format used on BDs/HD-DVDs
    Duration                    : 2h 0mn
    Bit rate                    : 7 794 bps
    Count of elements           : 2142
    Stream size                 : 6.70 MiB (0%)
    Language                    : German
    Default                     : No
    Forced                      : No
    
    Menu
    00:00:00.000                : en:Chapter 01
    00:03:04.309                : en:Chapter 02
    00:05:25.199                : en:Chapter 03
    00:06:58.668                : en:Chapter 04
    00:10:33.507                : en:Chapter 05
    00:12:11.480                : en:Chapter 06
    00:16:53.887                : en:Chapter 07
    00:20:37.444                : en:Chapter 08
    00:23:45.257                : en:Chapter 09
    00:26:44.686                : en:Chapter 10
    00:29:10.081                : en:Chapter 11
    00:32:10.261                : en:Chapter 12
    00:35:21.577                : en:Chapter 13
    00:38:14.250                : en:Chapter 14
    00:41:22.980                : en:Chapter 15
    00:45:05.703                : en:Chapter 16
    00:47:39.898                : en:Chapter 17
    00:53:16.484                : en:Chapter 18
    00:57:16.850                : en:Chapter 19
    01:02:32.206                : en:Chapter 20
    01:05:30.009                : en:Chapter 21
    01:08:36.403                : en:Chapter 22
    01:11:11.058                : en:Chapter 23
    01:14:30.257                : en:Chapter 24
    01:18:12.270                : en:Chapter 25
    01:21:31.094                : en:Chapter 26
    01:25:57.485                : en:Chapter 27
    01:30:47.108                : en:Chapter 28
    01:36:05.509                : en:Chapter 29
    01:39:38.806                : en:Chapter 30
    01:41:54.525                : en:Chapter 31
    01:45:43.170                : en:Chapter 32
    01:49:21.346                : en:Chapter 33
    01:52:23.695                : en:Chapter 34
    01:56:06.918                : en:Chapter 35
    01:58:24.806                : en:Chapter 36



    Geschützter Bereich - Bedanke dich beim Poster, um den Bereich sehen zu können
    Hier erfährst Du wie Du Dich bedanken kannst oder werde jetzt Premium Mitglied ab einer Spende von 5€ und erhalte sofortigen Zugriff auf den Downloadbereich!

  2. 18 Benutzer sagen Danke:

    Amonzion (14. March 2016),Benebastler (24. April 2016),CyberReXxX (29. March 2016),foxtrot (30. April 2016),Gromm (25. June 2016),holyhooker111 (20. April 2016),Jisaka (2. October 2016),kashmael (12. May 2016),marco.xf (5. June 2016),Marcurion (15. March 2016),maximus (23. May 2016),midnighter (27. March 2016),nickssystem (30. April 2016),Raphael96 (1. April 2016),Sopar (24. September 2016),TorbenSonnenStern (16. June 2016),Volki002 (22. June 2016),zockerboy (27. March 2016)

Lesezeichen

Berechtigungen

  • Neue Themen erstellen: Nein
  • Themen beantworten: Nein
  • Anhänge hochladen: Nein
  • Beiträge bearbeiten: Nein
  •  

1 2 3 4 5 6 7 8 9 10 11 12 13 14 15 16 17 18 19 20 21 22 23 24 25 26 27 28 29 30 31 32 33 34 35 36 37 38 39 40 41 42 43 44 45 46 47 48 49 50 51 52 53 54 55 56 57 58 59 60 61 62 63 64 65 66 67 68 69 70 71 72 73 74 75 76 77 78 79 80 81 82 83 84 85 86 87 88 89 90 91 92 93 94 95 96 97 98 99 100 101 102 103 104 105 106 107 108 109 110 111 112 113 114 115 116 117 118 119 120 121 122 123 124 125 126 127 128 129 130 131 132 133 134 135 136 137 138 139 140 141 142 143 144 145 146 147 148 149 150 151 152 153 154 155 156 157 158