Ergebnis 1 bis 1 von 1

Thema: Ame & Yuki: Die Wolfskinder (2012) + Extras [Ger-Jap-Dub][DTS-HD HRA][Ger-Sub][1080p][Remux][BluRay]-SantaKlaus

Dieser Thread wurde noch nicht bewertet. Bewerte ihn doch, wenn er dir gefällt!
  1. #1
    Kleiner Experte Avatar von SantaKlaus
    Registriert seit
    Feb 2014
    Beiträge
    103
    Punkte
    5.867
    Errungenschaften:
    Hikikomori5000 Erfahrungspunkte

    Ame & Yuki: Die Wolfskinder (2012) + Extras [Ger-Jap-Dub][DTS-HD HRA][Ger-Sub][1080p][Remux][BluRay]-SantaKlaus

    Ame & Yuki: Die Wolfskinder
    Ookami Kodomo no Ame to Yuki
    おおかみこどもの雨と雪
    Wolf Children






    Kurzbeschreibung:
    Die 19-jährige College-Studentin Hana verliebt sich in einen Werwolf und bekommt zwei Kinder mit ihm, Yuki und ihren jüngeren Bruder Ame. Nachdem der Vater plötzlich stirbt, muss Hana sich alleine um die Kinder kümmern, und beschließt, mit ihnen weitab hinaus aufs Land zu ziehen, wo die beiden frei und nach ihren Wünschen aufwachsen können.


    Format: 16:9
    Auflösung: 1920x1080
    Source: Blu-ray
    Codec: AVC
    Hoster: Share-Online
    Ton:
    Deutsch DTS-HD HRA 5.1
    Japanisch DTS-HD HRA 5.1
    Japanisch Dolby Digital 2.0 Commentary

    Spoiler
    Code:
    Ame & Yuki - Die Wolfskinder (2012)/Ame & Yuki - Die Wolfskinder (2012).mkv
    Ame & Yuki - Die Wolfskinder (2012)/Behind The Scenes/Premierenauftritte.mkv
    Ame & Yuki - Die Wolfskinder (2012)/Behind The Scenes/PR-Video.mkv
    Ame & Yuki - Die Wolfskinder (2012)/Scenes/BD Menu 1.mkv
    Ame & Yuki - Die Wolfskinder (2012)/Scenes/BD Menu 2.mkv
    Ame & Yuki - Die Wolfskinder (2012)/Scenes/Best-of- Ame & Yuki.mkv
    Ame & Yuki - Die Wolfskinder (2012)/Scenes/Best-of- Hana.mkv
    Ame & Yuki - Die Wolfskinder (2012)/Trailers/Teaser.mkv
    Ame & Yuki - Die Wolfskinder (2012)/Trailers/Trailer 1.mkv
    Ame & Yuki - Die Wolfskinder (2012)/Trailers/Trailer 2.mkv
    Ame & Yuki - Die Wolfskinder (2012)/Trailers/Trailer 3.mkv
    Ame & Yuki - Die Wolfskinder (2012)/Trailers/TV Spot.mkv


    Spoiler
    Code:
    General
    Unique ID                   : 256136653787723639454508267475520808137 (0xC0B2200913840429E79BC845310564C9)
    Complete name               : Ame & Yuki - Die Wolfskinder (2012).mkv
    Format                      : Matroska
    Format version              : Version 2
    File size                   : 27.3 GiB
    Duration                    : 1h 57mn
    Overall bit rate mode       : Variable
    Overall bit rate            : 33.4 Mbps
    Encoded date                : UTC 2016-03-06 09:21:20
    Writing application         : MakeMKV v1.9.9 win(x64-release)
    Writing library             : libmakemkv v1.9.9 (1.3.3/1.4.4) win(x64-release)
    Original source medium      : Blu-ray
    
    Video
    ID                          : 1
    ID in the original source m : 4113 (0x1011)
    Format                      : AVC
    Format/Info                 : Advanced Video Codec
    Format profile              : [email protected]
    Format settings, CABAC      : Yes
    Format settings, ReFrames   : 4 frames
    Codec ID                    : V_MPEG4/ISO/AVC
    Duration                    : 1h 57mn
    Bit rate mode               : Variable
    Bit rate                    : 27.0 Mbps
    Maximum bit rate            : 33.9 Mbps
    Width                       : 1 920 pixels
    Height                      : 1 080 pixels
    Display aspect ratio        : 16:9
    Frame rate mode             : Constant
    Frame rate                  : 23.976 (24000/1001) fps
    Standard                    : NTSC
    Color space                 : YUV
    Chroma subsampling          : 4:2:0
    Bit depth                   : 8 bits
    Scan type                   : Progressive
    Bits/(Pixel*Frame)          : 0.543
    Stream size                 : 22.1 GiB (81%)
    Language                    : Japanese
    Default                     : Yes
    Forced                      : No
    Color range                 : Limited
    Color primaries             : BT.709
    Transfer characteristics    : BT.709
    Matrix coefficients         : BT.709
    
    Audio #1
    ID                          : 2
    ID in the original source m : 4353 (0x1101)
    Format                      : DTS
    Format/Info                 : Digital Theater Systems
    Format profile              : HRA / Core
    Mode                        : 16
    Format settings, Endianness : Big
    Codec ID                    : A_DTS
    Duration                    : 1h 57mn
    Bit rate mode               : Constant
    Bit rate                    : 3 018 Kbps / 1 509 Kbps
    Channel(s)                  : 6 channels
    Channel positions           : Front: L C R, Side: L R, LFE
    Sampling rate               : 48.0 KHz
    Frame rate                  : 93.750 fps (512 spf)
    Bit depth                   : 24 bits
    Compression mode            : Lossy
    Stream size                 : 2.47 GiB (9%)
    Language                    : German
    Default                     : Yes
    Forced                      : No
    
    Audio #2
    ID                          : 3
    ID in the original source m : 4352 (0x1100)
    Format                      : DTS
    Format/Info                 : Digital Theater Systems
    Format profile              : HRA / Core
    Mode                        : 16
    Format settings, Endianness : Big
    Codec ID                    : A_DTS
    Duration                    : 1h 57mn
    Bit rate mode               : Constant
    Bit rate                    : 3 018 Kbps / 1 509 Kbps
    Channel(s)                  : 6 channels
    Channel positions           : Front: L C R, Side: L R, LFE
    Sampling rate               : 48.0 KHz
    Frame rate                  : 93.750 fps (512 spf)
    Bit depth                   : 24 bits
    Compression mode            : Lossy
    Stream size                 : 2.47 GiB (9%)
    Language                    : Japanese
    Default                     : No
    Forced                      : No
    
    Audio #3
    ID                          : 4
    ID in the original source m : 4354 (0x1102)
    Format                      : AC-3
    Format/Info                 : Audio Coding 3
    Mode extension              : CM (complete main)
    Format settings, Endianness : Big
    Codec ID                    : A_AC3
    Duration                    : 1h 57mn
    Bit rate mode               : Constant
    Bit rate                    : 320 Kbps
    Channel(s)                  : 2 channels
    Channel positions           : Front: L R
    Sampling rate               : 48.0 KHz
    Frame rate                  : 31.250 fps (1536 spf)
    Compression mode            : Lossy
    Stream size                 : 268 MiB (1%)
    Title                       : Commentary
    Language                    : Japanese
    Default                     : No
    Forced                      : No
    
    Text #1
    ID                          : 8
    ID in the original source m : 4608 (0x1200)
    Format                      : PGS
    Codec ID                    : S_HDMV/PGS
    Codec ID/Info               : Picture based subtitle format used on BDs/HD-DVDs
    Duration                    : 1h 56mn
    Bit rate                    : 23.6 Kbps
    Count of elements           : 3068
    Stream size                 : 19.7 MiB (0%)
    Language                    : German
    Default                     : No
    Forced                      : No
    
    Text #2
    ID                          : 9
    ID in the original source m : 4609 (0x1201)
    Format                      : PGS
    Codec ID                    : S_HDMV/PGS
    Codec ID/Info               : Picture based subtitle format used on BDs/HD-DVDs
    Duration                    : 1h 56mn
    Bit rate                    : 1 419 bps
    Count of elements           : 222
    Stream size                 : 1.18 MiB (0%)
    Language                    : German
    Default                     : Yes
    Forced                      : Yes
    
    Text #3
    ID                          : 10
    ID in the original source m : 4610 (0x1202)
    Format                      : PGS
    Codec ID                    : S_HDMV/PGS
    Codec ID/Info               : Picture based subtitle format used on BDs/HD-DVDs
    Duration                    : 1h 56mn
    Bit rate                    : 43.1 Kbps
    Count of elements           : 4706
    Stream size                 : 36.0 MiB (0%)
    Title                       : Commentary
    Language                    : German
    Default                     : No
    Forced                      : No
    
    Menu
    00:00:00.000                : en:Chapter 01
    00:01:56.241                : en:Chapter 02
    00:10:55.154                : en:Chapter 03
    00:21:22.656                : en:Chapter 04
    00:29:43.782                : en:Chapter 05
    00:42:50.609                : en:Chapter 06
    00:53:34.211                : en:Chapter 07
    01:06:37.201                : en:Chapter 08
    01:18:50.892                : en:Chapter 09
    01:31:08.671                : en:Chapter 10
    01:41:09.229                : en:Chapter 11
    01:51:47.200                : en:Chapter 12



    Geschützter Bereich - Bedanke dich beim Poster, um den Bereich sehen zu können
    Hier erfährst Du wie Du Dich bedanken kannst oder werde jetzt Premium Mitglied ab einer Spende von 5€ und erhalte sofortigen Zugriff auf den Downloadbereich!
    Geändert von SantaKlaus (14. March 2016 um 01:24 Uhr)

  2. 21 Benutzer sagen Danke:

    Conopas (11. March 2016),darthgonk (2. April 2016),Deshi25 (14. May 2016),Gorbatschow (16. November 2016),Ignasum (24. March 2016),johnny10 (14. March 2016),KXXXI (19. June 2016),Manuk (10. March 2016),ManunaM (13. March 2016),mar3el (10. August 2016),midnighter (27. March 2016),moflippa (29. April 2016),Mr.Classic (19. March 2016),norby (17. March 2016),rice4ever (9. April 2016),Sandy7580 (26. March 2016),Smery (21. March 2016),starforce (3. April 2016),undertaker0951 (14. August 2016),zockerfreund (19. October 2016),zoe#449 (5. August 2016)

Lesezeichen

Berechtigungen

  • Neue Themen erstellen: Nein
  • Themen beantworten: Nein
  • Anhänge hochladen: Nein
  • Beiträge bearbeiten: Nein
  •  

1 2 3 4 5 6 7 8 9 10 11 12 13 14 15 16 17 18 19 20 21 22 23 24 25 26 27 28 29 30 31 32 33 34 35 36 37 38 39 40 41 42 43 44 45 46 47 48 49 50 51 52 53 54 55 56 57 58 59 60 61 62 63 64 65 66 67 68 69 70 71 72 73 74 75 76 77 78 79 80 81 82 83 84 85 86 87 88 89 90 91 92 93 94 95 96 97 98 99 100 101 102 103 104 105 106 107 108 109 110 111 112 113 114 115 116 117 118 119 120 121 122 123 124 125 126 127 128 129 130 131 132 133 134 135 136 137 138 139 140 141 142 143 144 145 146 147 148 149 150 151 152 153 154 155 156 157 158