Ergebnis 1 bis 2 von 2

Thema: Appleseed Alpha [Ger-Eng-Dub][Ger-Eng-Sub][720p][BluRay]

Dieser Thread wurde durchschnittlich mit 4 Sternen bewertet, wobei 1 Stern die schlechteste und 5 Sterne die beste Bewertung ist. Es haben insgesamt 1 Mitglieder eine Bewertung abgegeben.

  1. #1
    Erfahrener Otaku Avatar von ohlong
    Registriert seit
    Sep 2013
    Ort
    Im Herzen Deutschlands
    Beiträge
    151
    Punkte
    5.807
    Errungenschaften:
    TomodachisTagger Profi5000 ErfahrungspunkteHikikomori

    Appleseed Alpha [Ger-Eng-Dub][Ger-Eng-Sub][720p][BluRay]



    Appleseed Alpha
    Appleseed: Alpha





    Kurzbeschreibung
    Die beiden Söldner Deunan und ihr Cyborg-Partner Briareos kämpfen in einer Nachkriegsgesellschaft ums Überleben.
    Sie werden auf eine Mission in die Außenbezirke ihrer kriegszerstörten Stadt geschickt, wo sie Iris und Olson, zwei Einwohnern der
    utopischen Stadt Olympus, begegnen, die den Schlüssel zur Rettung der Welt in der Hand zu halten scheinen. Doch der skrupellose
    Talos sowie der durchtriebene, selbsternannte Machthaber Two Horns haben andere Pläne. Deunan und Briareos müssen ihre
    neuen Freunde schützen, um der Menschheit ihre letzte Hoffnung zu bewahren.

    Sprache: Deutsch, Englisch
    Untertitel: Deutsch, Englisch
    Genre: Action, CG-Anime, Cyberpunk, Schusswaffen
    Source: BluRay
    Format: mkv
    Video-Codec: x264
    Resolution: 1280x720
    Größe: 4,09 GB
    Releaser: CRGHD
    Hoster: Share-Online, Uploaded


    Technische Informationen
    Spoiler
    Code:
    Format                                   : Matroska
    Format version                           : Version 2
    File size                                : 4.09 GiB
    Duration                                 : 1h 33mn
    Overall bit rate                         : 6 283 Kbps
    Encoded date                             : UTC 2014-07-17 23:47:09
    Writing application                      : mkvmerge v5.6.0 ('Kenya Kane') built on May 27 2012 16:44:04
    Writing library                          : libebml v1.2.3 + libmatroska v1.3.0
    
    Video
    ID                                       : 1
    Format                                   : AVC
    Format/Info                              : Advanced Video Codec
    Format profile                           : [email protected]
    Format settings, CABAC                   : Yes
    Format settings, ReFrames                : 4 frames
    Muxing mode                              : Header stripping
    Codec ID                                 : V_MPEG4/ISO/AVC
    Duration                                 : 1h 33mn
    Bit rate                                 : 5 614 Kbps
    Width                                    : 1 280 pixels
    Height                                   : 720 pixels
    Display aspect ratio                     : 16:9
    Frame rate mode                          : Constant
    Frame rate                               : 23.976 fps
    Color space                              : YUV
    Chroma subsampling                       : 4:2:0
    Bit depth                                : 8 bits
    Scan type                                : Progressive
    Bits/(Pixel*Frame)                       : 0.254
    Stream size                              : 3.59 GiB (88%)
    Writing library                          : x264 core 130 r2273 b3065e6
    Encoding settings                        : cabac=1 / ref=1 / deblock=1:0:0 / analyse=0x3:0x113 / me=hex / subme=2 / psy=1 / psy_rd=1.00:0.00 / mixed_ref=0 / me_range=16 / chroma_me=1 / trellis=0 / 8x8dct=1 / cqm=0 / deadzone=21,11 / fast_pskip=1 / chroma_qp_offset=0 / threads=6 / lookahead_threads=2 / sliced_threads=0 / nr=0 / decimate=1 / interlaced=0 / bluray_compat=0 / constrained_intra=0 / bframes=3 / b_pyramid=2 / b_adapt=1 / b_bias=0 / direct=1 / weightb=1 / open_gop=0 / weightp=1 / keyint=240 / keyint_min=24 / scenecut=40 / intra_refresh=0 / rc_lookahead=10 / rc=abr / mbtree=1 / bitrate=5614 / ratetol=1.0 / qcomp=0.60 / qpmin=0 / qpmax=69 / qpstep=4 / vbv_maxrate=62500 / vbv_bufsize=78125 / nal_hrd=none / ip_ratio=1.40 / aq=1:1.00
    Language                                 : German
    Default                                  : Yes
    Forced                                   : No
    Color primaries                          : BT.709
    Transfer characteristics                 : BT.709
    Matrix coefficients                      : BT.709
    
    Audio #1
    ID                                       : 2
    Format                                   : AC-3
    Format/Info                              : Audio Coding 3
    Mode extension                           : CM (complete main)
    Format settings, Endianness              : Big
    Muxing mode                              : Header stripping
    Codec ID                                 : A_AC3
    Duration                                 : 1h 33mn
    Bit rate mode                            : Constant
    Bit rate                                 : 320 Kbps
    Channel(s)                               : 2 channels
    Channel positions                        : Front: L R
    Sampling rate                            : 48.0 KHz
    Bit depth                                : 16 bits
    Compression mode                         : Lossy
    Stream size                              : 213 MiB (5%)
    Title                                    : AC3
    Language                                 : German
    Default                                  : Yes
    Forced                                   : No
    
    Audio #2
    ID                                       : 3
    Format                                   : AC-3
    Format/Info                              : Audio Coding 3
    Mode extension                           : CM (complete main)
    Format settings, Endianness              : Big
    Muxing mode                              : Header stripping
    Codec ID                                 : A_AC3
    Duration                                 : 1h 33mn
    Bit rate mode                            : Constant
    Bit rate                                 : 320 Kbps
    Channel(s)                               : 2 channels
    Channel positions                        : Front: L R
    Sampling rate                            : 48.0 KHz
    Bit depth                                : 16 bits
    Compression mode                         : Lossy
    Stream size                              : 213 MiB (5%)
    Title                                    : AC3
    Language                                 : English
    Default                                  : No
    Forced                                   : No
    
    Text #1
    ID                                       : 4
    Format                                   : PGS
    Muxing mode                              : zlib
    Codec ID                                 : S_HDMV/PGS
    Codec ID/Info                            : The same subtitle format used on BDs/HD-DVDs
    Language                                 : German
    Default                                  : No
    Forced                                   : No
    
    Text #2
    ID                                       : 5
    Format                                   : PGS
    Muxing mode                              : zlib
    Codec ID                                 : S_HDMV/PGS
    Codec ID/Info                            : The same subtitle format used on BDs/HD-DVDs
    Language                                 : German
    Default                                  : No
    Forced                                   : No
    
    Text #3
    ID                                       : 6
    Format                                   : PGS
    Muxing mode                              : zlib
    Codec ID                                 : S_HDMV/PGS
    Codec ID/Info                            : The same subtitle format used on BDs/HD-DVDs
    Language                                 : English
    Default                                  : No
    Forced                                   : No
    
    Text #4
    ID                                       : 7
    Format                                   : PGS
    Muxing mode                              : zlib
    Codec ID                                 : S_HDMV/PGS
    Codec ID/Info                            : The same subtitle format used on BDs/HD-DVDs
    Language                                 : English
    Default                                  : No
    Forced                                   : No
    
    Text #5
    ID                                       : 8
    Format                                   : PGS
    Muxing mode                              : zlib
    Codec ID                                 : S_HDMV/PGS
    Codec ID/Info                            : The same subtitle format used on BDs/HD-DVDs
    Language                                 : English
    Default                                  : No
    Forced                                   : No
    
    Text #6
    ID                                       : 9
    Format                                   : PGS
    Muxing mode                              : zlib
    Codec ID                                 : S_HDMV/PGS
    Codec ID/Info                            : The same subtitle format used on BDs/HD-DVDs
    Language                                 : English
    Default                                  : No
    Forced                                   : No
    
    Menu
    00:00:00.000                             : en:Chapter 1
    00:05:08.933                             : en:Chapter 2
    00:09:07.672                             : en:Chapter 3
    00:14:45.843                             : en:Chapter 4
    00:19:39.136                             : en:Chapter 5
    00:29:15.545                             : en:Chapter 6
    00:33:53.781                             : en:Chapter 7
    00:38:17.211                             : en:Chapter 8
    00:44:42.721                             : en:Chapter 9
    00:51:23.955                             : en:Chapter 10
    00:56:57.956                             : en:Chapter 11
    01:02:53.311                             : en:Chapter 12
    01:08:47.873                             : en:Chapter 13
    01:13:17.393                             : en:Chapter 14
    01:19:02.821                             : en:Chapter 15
    01:24:49.042                             : en:Chapter 16



    Password
    [email protected]

    Geschützter Bereich - Bedanke dich beim Poster, um den Bereich sehen zu können
    Hier erfährst Du wie Du Dich bedanken kannst oder werde jetzt Premium Mitglied ab einer Spende von 5€ und erhalte sofortigen Zugriff auf den Downloadbereich!

    Geändert von ohlong (12. January 2016 um 13:54 Uhr)

  2. 37 Benutzer sagen Danke:

    Akio (8. November 2015),BlackReaper (28. July 2014),Ch1quita (3. August 2014),chris1989 (21. September 2014),Daran2010 (20. July 2014),DaWayne (1. August 2014),DeathBeast88 (7. August 2014),Draagul (8. April 2015),Farelliser (22. September 2014),fonomonochan (8. December 2014),freakwatcher (25. September 2015),Gatti1983 (3. August 2014),ghosthammer_inactive (3. September 2014),Ghostraven (6. November 2015),Grave Baker (31. December 2014),gunnar1 (2. August 2014),Keniji (9. August 2014),Leviathan42 (12. September 2014),littlepin87 (27. July 2014),LowT (14. September 2015),McFly4711 (18. May 2015),midnighter (25. December 2014),MrScenic (23. July 2014),Noire16 (8. May 2015),riku14466 (2. August 2014),Roy_Coleman (20. July 2014),Savius (27. July 2014),Sense (13. September 2014),Seregil (20. July 2014),sunfun16 (6. August 2014),Tenacious (16. September 2015),Terraner (21. January 2016),VatosLocos (10. September 2015),Viuren (21. July 2014),Wildstyle3001_inactive (10. April 2015),Wildy (8. October 2014),Zaisen (23. July 2014)

  3. #2
    Erfahrener Otaku Avatar von ohlong
    Registriert seit
    Sep 2013
    Ort
    Im Herzen Deutschlands
    Beiträge
    151
    Punkte
    5.807
    Errungenschaften:
    TomodachisTagger Profi5000 ErfahrungspunkteHikikomori

    AW: Appleseed Alpha [Ger-Eng-Dub][Ger-Eng-Sub][720p][BluRay]

    Reup auf Share-Online & Uploaded

Lesezeichen

Berechtigungen

  • Neue Themen erstellen: Nein
  • Themen beantworten: Nein
  • Anhänge hochladen: Nein
  • Beiträge bearbeiten: Nein
  •  

1 2 3 4 5 6 7 8 9 10 11 12 13 14 15 16 17 18 19 20 21 22 23 24 25 26 27 28 29 30 31 32 33 34 35 36 37 38 39 40 41 42 43 44 45 46 47 48 49 50 51 52 53 54 55 56 57 58 59 60 61 62 63 64 65 66 67 68 69 70 71 72 73 74 75 76 77 78 79 80 81 82 83 84 85 86 87 88 89 90 91 92 93 94 95 96 97 98 99 100 101 102 103 104 105 106 107 108 109 110 111 112 113 114 115 116 117 118 119 120 121 122 123 124 125 126 127 128 129 130 131 132 133 134 135 136 137 138 139 140 141 142 143 144 145 146 147 148 149 150 151 152 153 154 155 156 157 158