Ergebnis 1 bis 1 von 1

Thema: Appleseed Alpha OVA [Ger-Jap-Eng-Dub][Ger-Eng-Sub] German AC3 ML 1080p BluRay x264 - AST4u

Dieser Thread wurde noch nicht bewertet. Bewerte ihn doch, wenn er dir gefällt!
  1. #1
    Kleiner Experte Avatar von n3l0S
    Registriert seit
    Nov 2013
    Beiträge
    60
    Punkte
    4.938
    Errungenschaften:
    1000 ErfahrungspunkteHikikomori

    Appleseed Alpha OVA [Ger-Jap-Eng-Dub][Ger-Eng-Sub] German AC3 ML 1080p BluRay x264 - AST4u

    [Links sind nur für registrierte und aktivierte Nutzer sichtbar. Klicke hier um dich zu registrieren.]
    Die beiden Söldner Deunan und ihr Cyborg-Partner Briareos kämpfen in einer Nachkriegsgesellschaft ums Überleben. Sie werden auf eine Mission in die Außenbezirke ihrer kriegszerstörten Stadt geschickt, wo sie Iris und Olson, zwei Einwohnern der utopischen Stadt Olympus, begegnen, die den Schlüssel zur Rettung der Welt in der Hand zu halten scheinen. Doch der skrupellose Talos sowie der durchtriebene, selbsternannte Machthaber Two Horns haben andere Pläne. Deunan und Briareos müssen ihre neuen Freunde schützen, um der Menschheit ihre letzte Hoffnung zu bewahren.

    ⚝⚝

    -----------------------------------------------------
    MEDIAINFO
    Spoiler
    Code:
    u9
    General
    Unique ID                                : 184364136441954501782549542216126479072 (0x8AB33DB905B1E59F9DFA4B6189E4BAE0)
    Complete name                            : M:\Downloads\Torrent\Appleseed.Alpha.OVA.German.AC3.ML.1080p.BluRay.x264-AST4u\Appleseed.Alpha.OVA.German.AC3.ML.1080p.BluRay.x264-AST4u.mkv
    Format                                   : Matroska
    Format version                           : Version 2
    File size                                : 7.50 GiB
    Duration                                 : 1h 33mn
    Overall bit rate                         : 11.5 Mbps
    Movie name                               : APPLESEED__ALPHA.Title3
    Encoded date                             : UTC 2014-07-13 17:39:28
    Writing application                      : DVDFab 9.1.5.7
    Writing library                          : libebml v0.7.8 + libmatroska v0.8.1
    
    Video
    ID                                       : 1
    Format                                   : AVC
    Format/Info                              : Advanced Video Codec
    Format profile                           : [email protected]
    Format settings, CABAC                   : Yes
    Format settings, ReFrames                : 2 frames
    Codec ID                                 : V_MPEG4/ISO/AVC
    Duration                                 : 1h 33mn
    Bit rate                                 : 9 945 Kbps
    Width                                    : 1 920 pixels
    Height                                   : 1 080 pixels
    Display aspect ratio                     : 16:9
    Frame rate mode                          : Constant
    Frame rate                               : 23.976 fps
    Color space                              : YUV
    Chroma subsampling                       : 4:2:0
    Bit depth                                : 8 bits
    Scan type                                : Progressive
    Bits/(Pixel*Frame)                       : 0.200
    Stream size                              : 6.48 GiB (86%)
    Writing library                          : x264 core
    Default                                  : Yes
    Forced                                   : No
    Color primaries                          : BT.709
    Transfer characteristics                 : BT.709
    Matrix coefficients                      : BT.709
    
    Audio #1
    ID                                       : 2
    Format                                   : AC-3
    Format/Info                              : Audio Coding 3
    Mode extension                           : CM (complete main)
    Format settings, Endianness              : Big
    Codec ID                                 : A_AC3
    Duration                                 : 1h 33mn
    Bit rate mode                            : Constant
    Bit rate                                 : 448 Kbps
    Channel count                            : 6 channels
    Channel positions                        : Front: L C R, Side: L R, LFE
    Sampling rate                            : 48.0 KHz
    Bit depth                                : 16 bits
    Compression mode                         : Lossy
    Stream size                              : 299 MiB (4%)
    Language                                 : English
    Default                                  : Yes
    Forced                                   : No
    
    Audio #2
    ID                                       : 3
    Format                                   : AC-3
    Format/Info                              : Audio Coding 3
    Mode extension                           : CM (complete main)
    Format settings, Endianness              : Big
    Codec ID                                 : A_AC3
    Duration                                 : 1h 33mn
    Bit rate mode                            : Constant
    Bit rate                                 : 448 Kbps
    Channel count                            : 6 channels
    Channel positions                        : Front: L C R, Side: L R, LFE
    Sampling rate                            : 48.0 KHz
    Bit depth                                : 16 bits
    Compression mode                         : Lossy
    Stream size                              : 299 MiB (4%)
    Language                                 : German
    Default                                  : No
    Forced                                   : No
    
    Audio #3
    ID                                       : 4
    Format                                   : AC-3
    Format/Info                              : Audio Coding 3
    Mode extension                           : CM (complete main)
    Format settings, Endianness              : Big
    Codec ID                                 : A_AC3
    Duration                                 : 1h 33mn
    Bit rate mode                            : Constant
    Bit rate                                 : 448 Kbps
    Channel count                            : 2 channels
    Channel positions                        : Front: L R
    Sampling rate                            : 48.0 KHz
    Bit depth                                : 16 bits
    Compression mode                         : Lossy
    Stream size                              : 299 MiB (4%)
    Language                                 : Japanese
    Default                                  : No
    Forced                                   : No
    
    Text #1
    ID                                       : 5
    Format                                   : PGS
    Codec ID                                 : S_HDMV/PGS
    Codec ID/Info                            : The same subtitle format used on BDs/HD-DVDs
    Language                                 : English
    Default                                  : Yes
    Forced                                   : No
    
    Text #2
    ID                                       : 6
    Format                                   : PGS
    Codec ID                                 : S_HDMV/PGS
    Codec ID/Info                            : The same subtitle format used on BDs/HD-DVDs
    Language                                 : English
    Default                                  : No
    Forced                                   : No
    
    Text #3
    ID                                       : 7
    Format                                   : PGS
    Codec ID                                 : S_HDMV/PGS
    Codec ID/Info                            : The same subtitle format used on BDs/HD-DVDs
    Language                                 : English
    Default                                  : No
    Forced                                   : No
    
    Text #4
    ID                                       : 8
    Format                                   : PGS
    Codec ID                                 : S_HDMV/PGS
    Codec ID/Info                            : The same subtitle format used on BDs/HD-DVDs
    Language                                 : English
    Default                                  : No
    Forced                                   : No
    
    Text #5
    ID                                       : 9
    Format                                   : PGS
    Codec ID                                 : S_HDMV/PGS
    Codec ID/Info                            : The same subtitle format used on BDs/HD-DVDs
    Language                                 : German
    Default                                  : No
    Forced                                   : No
    
    Text #6
    ID                                       : 10
    Format                                   : PGS
    Codec ID                                 : S_HDMV/PGS
    Codec ID/Info                            : The same subtitle format used on BDs/HD-DVDs
    Language                                 : English
    Default                                  : No
    Forced                                   : No
    
    Text #7
    ID                                       : 11
    Format                                   : PGS
    Codec ID                                 : S_HDMV/PGS
    Codec ID/Info                            : The same subtitle format used on BDs/HD-DVDs
    Language                                 : German
    Default                                  : No
    Forced                                   : No
    
    Menu
    00:00:00.000                             : en:(01)00:00:00:000
    00:05:09.684                             : en:(02)00:05:09:684
    00:09:07.713                             : en:(03)00:09:07:713
    00:14:45.885                             : en:(04)00:14:45:885
    00:19:39.178                             : en:(05)00:19:39:178
    00:29:15.587                             : en:(06)00:29:15:587
    00:33:53.823                             : en:(07)00:33:53:823
    00:38:17.253                             : en:(08)00:38:17:253
    00:44:42.763                             : en:(09)00:44:42:763
    00:51:23.997                             : en:(10)00:51:23:997
    00:56:57.997                             : en:(11)00:56:57:997
    01:02:53.352                             : en:(12)01:02:53:352
    01:08:48.415                             : en:(13)01:08:48:415
    01:13:17.434                             : en:(14)01:13:17:434
    01:19:02.863                             : en:(15)01:19:02:863
    01:24:49.209                             : en:(16)01:24:49:209

    -----------------------------------------------------

    ⚝⚝

    -----------------------------------------------------
    - | Uploaded | -
    - | Share-Online | -
    - | Zippyshare (für free User) | -

    File size : 7.50 GiB

    !! Lade den kleinen Inhalt (Archiv) !!
    !! Darin befindet sich alles was man zum Download benötigt !!

    -----------------------------------------------------
    kein Danke => nach 30 Tagen DOWN
    - !!! - Bitte Bedanken - !!! -


    ⚝⚝⚝⚝
    Geschützter Bereich - Bedanke dich beim Poster, um den Bereich sehen zu können
    Hier erfährst Du wie Du Dich bedanken kannst oder werde jetzt Premium Mitglied ab einer Spende von 5€ und erhalte sofortigen Zugriff auf den Downloadbereich!

    ⚝⚝⚝⚝


    - !!! - Bitte Bedanken - !!! -
    kein Danke => nach 30 Tagen DOWN
    -----------------------------------------------------
    Alternative wenn DOWN
    Spoiler
    ⚝⚝⚝⚝
    Geschützter Bereich - Bedanke dich beim Poster, um den Bereich sehen zu können
    Hier erfährst Du wie Du Dich bedanken kannst oder werde jetzt Premium Mitglied ab einer Spende von 5€ und erhalte sofortigen Zugriff auf den Downloadbereich!

    ⚝⚝⚝⚝

    Alternative wenn DOWN
    -----------------------------------------------------

    ⚝⚝
    [Links sind nur für registrierte und aktivierte Nutzer sichtbar. Klicke hier um dich zu registrieren.]

  2. 10 Benutzer sagen Danke:

    Aizen-Sama (20. November 2016),Akio (9. November 2015),Ghostraven (6. November 2015),LowT (14. September 2015),meins-ag (18. January 2016),midnighter (20. June 2015),Shi No Ryu (21. June 2015),Subroutine (28. September 2015),Tai1988 (13. July 2015),Tenacious (16. September 2015)

Lesezeichen

Berechtigungen

  • Neue Themen erstellen: Nein
  • Themen beantworten: Nein
  • Anhänge hochladen: Nein
  • Beiträge bearbeiten: Nein
  •  

1 2 3 4 5 6 7 8 9 10 11 12 13 14 15 16 17 18 19 20 21 22 23 24 25 26 27 28 29 30 31 32 33 34 35 36 37 38 39 40 41 42 43 44 45 46 47 48 49 50 51 52 53 54 55 56 57 58 59 60 61 62 63 64 65 66 67 68 69 70 71 72 73 74 75 76 77 78 79 80 81 82 83 84 85 86 87 88 89 90 91 92 93 94 95 96 97 98 99 100 101 102 103 104 105 106 107 108 109 110 111 112 113 114 115 116 117 118 119 120 121 122 123 124 125 126 127 128 129 130 131 132 133 134 135 136 137 138 139 140 141 142 143 144 145 146 147 148 149 150 151 152 153 154 155 156 157 158