Ergebnis 1 bis 3 von 3

Thema: Appleseed Ex Machina [JapGerDub][GerSub][720p][BluRay]

Dieser Thread wurde noch nicht bewertet. Bewerte ihn doch, wenn er dir gefällt!
  1. #1
    Erfahrener Otaku Avatar von ohlong
    Registriert seit
    Sep 2013
    Ort
    Im Herzen Deutschlands
    Beiträge
    151
    Punkte
    5.807
    Errungenschaften:
    TomodachisTagger Profi5000 ErfahrungspunkteHikikomori

    Appleseed Ex Machina [JapGerDub][GerSub][720p][BluRay]



    Appleseed Saga Ex Machina
    エクスマキナ
    POSEIDON Project
    Appleseed 2





    Kurzbeschreibung
    Deunan, eine junge weibliche Kriegerin und Briareos, ein (Cyborg-)Soldat, sind beide Partner und ein Liebespaar. Als Mitglieder der ESWAT, die Elite special forces, dienen sie Olympus und sie werden eingesetzt, wann immer es Schwierigkeiten gibt. Die Partnerschaft von den beiden Kämpfern wird oft getestet in einer neuen Art und Weise durch die Ankunft eines neuen Mitglieds in ihren Reihen - ein Bioroid namens Tereus...

    Sprache: Japanisch, Deutsch (AC3)
    Untertitel: Deutsch (SRT)
    Genre: Action, Sci-Fi, CG-Anime, Real Robots
    Source: BluRay
    Format: mkv
    Video-Codec: x264
    Resolution: 1280x720
    Größe: 4,57GB
    Releaser: ?
    Hoster: Share-Online, Uploaded


    Technische Informationen
    Spoiler
    Code:
    Format                                   : Matroska
    Format version                           : Version 2
    File size                                : 4.58 GiB
    Duration                                 : 1h 44mn
    Overall bit rate                         : 6 278 Kbps
    Encoded date                             : UTC 2013-08-24 15:33:42
    Writing application                      : mkvmerge v5.6.0 ('Kenya Kane') built on May 27 2012 16:44:04
    Writing library                          : libebml v1.2.3 + libmatroska v1.3.0
    
    Video
    ID                                       : 1
    Format                                   : AVC
    Format/Info                              : Advanced Video Codec
    Format profile                           : [email protected]
    Format settings, CABAC                   : Yes
    Format settings, ReFrames                : 3 frames
    Muxing mode                              : Header stripping
    Codec ID                                 : V_MPEG4/ISO/AVC
    Duration                                 : 1h 44mn
    Bit rate                                 : 5 446 Kbps
    Width                                    : 1 280 pixels
    Height                                   : 720 pixels
    Display aspect ratio                     : 16:9
    Frame rate                               : 23.976 fps
    Color space                              : YUV
    Chroma subsampling                       : 4:2:0
    Bit depth                                : 8 bits
    Scan type                                : Progressive
    Bits/(Pixel*Frame)                       : 0.246
    Stream size                              : 3.88 GiB (85%)
    Writing library                          : x264 core 60 r901M 58d7d06
    Encoding settings                        : cabac=1 / ref=3 / deblock=1:-1:-1 / analyse=0x3:0x113 / me=umh / subme=7 / rdcmp=psy / brdo=1 / mixed_ref=1 / me_range=16 / chroma_me=1 / trellis=1 / 8x8dct=1 / cqm=0 / deadzone=21,11 / chroma_qp_offset=0 / threads=3 / nr=0 / decimate=1 / mbaff=0 / bframes=3 / b_pyramid=1 / b_adapt=1 / b_bias=0 / direct=1 / wpredb=1 / bime=1 / keyint=24 / keyint_min=13 / scenecut=40(pre) / rc=2pass / bitrate=5446 / ratetol=1.0 / rceq='blurCplx^(1-qComp)' / qcomp=1.00 / qpmin=10 / qpmax=51 / qpstep=4 / cplxblur=20.0 / qblur=0.5 / ip_ratio=1.40 / pb_ratio=1.30 / aq=2:1.00
    Language                                 : German
    Default                                  : Yes
    Forced                                   : No
    
    Audio #1
    ID                                       : 2
    Format                                   : AC-3
    Format/Info                              : Audio Coding 3
    Mode extension                           : CM (complete main)
    Format settings, Endianness              : Big
    Muxing mode                              : Header stripping
    Codec ID                                 : A_AC3
    Duration                                 : 1h 44mn
    Bit rate mode                            : Constant
    Bit rate                                 : 640 Kbps
    Channel(s)                               : 6 channels
    Channel positions                        : Front: L C R, Side: L R, LFE
    Sampling rate                            : 48.0 KHz
    Bit depth                                : 16 bits
    Compression mode                         : Lossy
    Stream size                              : 478 MiB (10%)
    Title                                    : AC3
    Language                                 : Japanese
    Default                                  : No
    Forced                                   : No
    
    Audio #2
    ID                                       : 3
    Format                                   : AC-3
    Format/Info                              : Audio Coding 3
    Format profile                           : Dolby Digital
    Mode extension                           : CM (complete main)
    Format settings, Endianness              : Big
    Muxing mode                              : Header stripping
    Codec ID                                 : A_AC3
    Duration                                 : 1h 44mn
    Bit rate mode                            : Constant
    Bit rate                                 : 192 Kbps
    Channel(s)                               : 2 channels
    Channel positions                        : Front: L R
    Sampling rate                            : 48.0 KHz
    Bit depth                                : 16 bits
    Compression mode                         : Lossy
    Stream size                              : 143 MiB (3%)
    Title                                    : AC3
    Language                                 : German
    Default                                  : Yes
    Forced                                   : No
    
    Text
    ID                                       : 4
    Format                                   : UTF-8
    Codec ID                                 : S_TEXT/UTF8
    Codec ID/Info                            : UTF-8 Plain Text
    Title                                    : SRT
    Language                                 : German
    Default                                  : No
    Forced                                   : No



    Password
    [email protected]

    Geschützter Bereich - Bedanke dich beim Poster, um den Bereich sehen zu können
    Hier erfährst Du wie Du Dich bedanken kannst oder werde jetzt Premium Mitglied ab einer Spende von 5€ und erhalte sofortigen Zugriff auf den Downloadbereich!

    Geändert von ohlong (12. January 2016 um 13:22 Uhr)

  2. 41 Benutzer sagen Danke:

    Akio (9. November 2015),Aluaran (12. January 2015),Asturaetus (11. July 2014),badx (13. February 2015),Bilsengleich (24. October 2013),BlackDragon333 (20. December 2014),BlackReaper (10. June 2014),Callisto (17. December 2013),Draagul (13. April 2014),FIRST--LAW--FANTASY (26. March 2014),fonomonochan (8. December 2014),Gatti1983 (31. January 2015),Gorbatschow (11. November 2015),Grave Baker (31. December 2014),Grom (15. April 2016),heikobaer (31. August 2014),Jinnay (17. January 2015),Katagashi (26. March 2015),Keniji (9. August 2014),kilosierra (6. March 2014),littlepin87 (27. July 2014),LowT (14. September 2015),meins-ag (20. November 2015),midnighter (2. February 2015),Mimosasukarina (21. January 2015),Noire16 (24. September 2016),Norandas (27. December 2014),Roy_Coleman (13. January 2015),Sense (13. September 2014),SmokingTea (28. December 2015),SONNYxq (19. August 2015),Subroutine (28. September 2015),sunfun16 (6. August 2014),syncity (3. April 2014),Tai1988 (4. December 2013),TenNoRyuu (25. October 2013),VatosLocos (10. September 2015),Viuren (22. July 2014),Zaisen (21. September 2013),Zetsu (4. September 2015),zuloo (19. June 2015)

  3. #2
    Erfahrener Otaku Avatar von ohlong
    Registriert seit
    Sep 2013
    Ort
    Im Herzen Deutschlands
    Beiträge
    151
    Punkte
    5.807
    Errungenschaften:
    TomodachisTagger Profi5000 ErfahrungspunkteHikikomori

    AW: Appleseed Ex Machina [JapGerDub][GerSub][720p][BluRay]

    Reup auf Share-Online & Uploaded

  4. 1 Benutzer sagt Danke:

    badx (13. February 2015)

  5. #3
    Erfahrener Otaku Avatar von ohlong
    Registriert seit
    Sep 2013
    Ort
    Im Herzen Deutschlands
    Beiträge
    151
    Punkte
    5.807
    Errungenschaften:
    TomodachisTagger Profi5000 ErfahrungspunkteHikikomori

    AW: Appleseed Ex Machina [JapGerDub][GerSub][720p][BluRay]

    Reup auf Share-Online & Uploaded

Stichworte

Lesezeichen

Berechtigungen

  • Neue Themen erstellen: Nein
  • Themen beantworten: Nein
  • Anhänge hochladen: Nein
  • Beiträge bearbeiten: Nein
  •  

1 2 3 4 5 6 7 8 9 10 11 12 13 14 15 16 17 18 19 20 21 22 23 24 25 26 27 28 29 30 31 32 33 34 35 36 37 38 39 40 41 42 43 44 45 46 47 48 49 50 51 52 53 54 55 56 57 58 59 60 61 62 63 64 65 66 67 68 69 70 71 72 73 74 75 76 77 78 79 80 81 82 83 84 85 86 87 88 89 90 91 92 93 94 95 96 97 98 99 100 101 102 103 104 105 106 107 108 109 110 111 112 113 114 115 116 117 118 119 120 121 122 123 124 125 126 127 128 129 130 131 132 133 134 135 136 137 138 139 140 141 142 143 144 145 146 147 148 149 150 151 152 153 154 155 156 157 158