Ergebnis 1 bis 2 von 2

Thema: Appleseed [JapGerDub][GerSub][1080p][BluRay]

Dieser Thread wurde noch nicht bewertet. Bewerte ihn doch, wenn er dir gefällt!
  1. #1
    Erfahrener Otaku Avatar von ohlong
    Registriert seit
    Sep 2013
    Ort
    Im Herzen Deutschlands
    Beiträge
    151
    Punkte
    5.807
    Errungenschaften:
    TomodachisTagger Profi5000 ErfahrungspunkteHikikomori

    Appleseed [JapGerDub][GerSub][1080p][BluRay]



    Appleseed (2004)
    アップルシード
    Appleseed
    Appleseed 2004





    Kurzbeschreibung
    Im Jahr 2131 liegt die Welt in Trümmern. Die junge Kriegerin Deunan kämpft noch immer in den Ruinen, als sie plötzlich von ihrem früheren Freund Briareos entführt und in die futuristische Metropole Olympus verschleppt wird. Als sie erwacht, findet sie sich in einer Gesellschaft wieder, in der Menschen und Bioroids, genetische veränderte Klone, zusammenleben. Auch ihr früherer Freund Briareos hat sich verändert, da seine Körperteile durch Roboterteile ersetzt wurden. Von Hitomi, einer Bioroid, wird sie in die Abläufe der Stadt eingeweiht. Aber sie steht dieser "perfekten" Gesellschaft sehr skeptisch gegenüber, nicht zu unrecht. Die 7 Ältesten, die zusammen mit "GAIA", ein Supercomputer, die Regierung stellen, scheinen doch nicht so edle Absichten zu verfolgen.

    Sprache: Japanisch, Deutsch (AC3)
    Untertitel: Deutsch (SRT)
    Genre: Action, Sci-Fi, CG-Anime, Real Robots
    Source: BluRay
    Format: mkv
    Video-Codec: x264
    Resolution: 1920x1080
    Größe: 4,45GB
    Releaser: r0cked
    Hoster: Share-Online, Uploaded


    Technische Informationen
    Spoiler
    Code:
    Format                                   : Matroska
    Format version                           : Version 2
    File size                                : 4.45 GiB
    Duration                                 : 1h 45mn
    Overall bit rate                         : 6 042 Kbps
    Movie name                               : APPLESEED
    Encoded date                             : UTC 2013-08-22 13:26:52
    Writing application                      : mkvmerge v5.6.0 ('Kenya Kane') built on May 27 2012 16:44:04
    Writing library                          : libebml v1.2.3 + libmatroska v1.3.0
    
    Video
    ID                                       : 1
    Format                                   : AVC
    Format/Info                              : Advanced Video Codec
    Format profile                           : [email protected]
    Format settings, CABAC                   : Yes
    Format settings, ReFrames                : 5 frames
    Muxing mode                              : Header stripping
    Codec ID                                 : V_MPEG4/ISO/AVC
    Duration                                 : 1h 45mn
    Bit rate                                 : 5 282 Kbps
    Width                                    : 1 920 pixels
    Height                                   : 1 080 pixels
    Display aspect ratio                     : 16:9
    Frame rate                               : 23.976 fps
    Color space                              : YUV
    Chroma subsampling                       : 4:2:0
    Bit depth                                : 8 bits
    Scan type                                : Progressive
    Bits/(Pixel*Frame)                       : 0.106
    Stream size                              : 3.89 GiB (87%)
    Title                                    : APPLESEED
    Writing library                          : x264 core 80 r1376 3feaec2
    Encoding settings                        : cabac=1 / ref=5 / deblock=1:0:0 / analyse=0x3:0x133 / me=umh / subme=7 / psy=1 / psy_rd=1.0:0.0 / mixed_ref=1 / me_range=16 / chroma_me=1 / trellis=1 / 8x8dct=1 / cqm=0 / deadzone=21,11 / fast_pskip=1 / chroma_qp_offset=-2 / threads=12 / sliced_threads=0 / nr=0 / decimate=1 / mbaff=0 / constrained_intra=0 / bframes=3 / b_pyramid=0 / b_adapt=1 / b_bias=0 / direct=1 / wpredb=1 / wpredp=2 / keyint=250 / keyint_min=25 / scenecut=40 / rc_lookahead=40 / rc=crf / mbtree=1 / crf=20.0 / qcomp=0.60 / qpmin=10 / qpmax=51 / qpstep=4 / ip_ratio=1.40 / aq=1:1.00
    Language                                 : German
    Default                                  : Yes
    Forced                                   : Yes
    
    Audio #1
    ID                                       : 2
    Format                                   : AC-3
    Format/Info                              : Audio Coding 3
    Mode extension                           : CM (complete main)
    Format settings, Endianness              : Big
    Muxing mode                              : Header stripping
    Codec ID                                 : A_AC3
    Duration                                 : 1h 45mn
    Bit rate mode                            : Constant
    Bit rate                                 : 320 Kbps
    Channel(s)                               : 2 channels
    Channel positions                        : Front: L R
    Sampling rate                            : 48.0 KHz
    Bit depth                                : 16 bits
    Compression mode                         : Lossy
    Stream size                              : 241 MiB (5%)
    Title                                    : AC3
    Language                                 : German
    Default                                  : Yes
    Forced                                   : No
    
    Audio #2
    ID                                       : 3
    Format                                   : AC-3
    Format/Info                              : Audio Coding 3
    Mode extension                           : CM (complete main)
    Format settings, Endianness              : Big
    Muxing mode                              : Header stripping
    Codec ID                                 : A_AC3
    Duration                                 : 1h 45mn
    Bit rate mode                            : Constant
    Bit rate                                 : 320 Kbps
    Channel(s)                               : 2 channels
    Channel positions                        : Front: L R
    Sampling rate                            : 48.0 KHz
    Bit depth                                : 16 bits
    Compression mode                         : Lossy
    Stream size                              : 241 MiB (5%)
    Title                                    : AC3
    Language                                 : Japanese
    Default                                  : No
    Forced                                   : No
    
    Text #1
    ID                                       : 4
    Format                                   : UTF-8
    Codec ID                                 : S_TEXT/UTF8
    Codec ID/Info                            : UTF-8 Plain Text
    Title                                    : GERMAN - FORCED
    Language                                 : German
    Default                                  : Yes
    Forced                                   : Yes
    
    Text #2
    ID                                       : 5
    Format                                   : UTF-8
    Codec ID                                 : S_TEXT/UTF8
    Codec ID/Info                            : UTF-8 Plain Text
    Title                                    : GERMAN - SUBS
    Language                                 : German
    Default                                  : No
    Forced                                   : No
    
    Text #3
    ID                                       : 6
    Format                                   : UTF-8
    Codec ID                                 : S_TEXT/UTF8
    Codec ID/Info                            : UTF-8 Plain Text
    Title                                    : GERMAN - AUDIO COMMENTARY
    Language                                 : German
    Default                                  : No
    Forced                                   : No



    Password
    [email protected]

    Geschützter Bereich - Bedanke dich beim Poster, um den Bereich sehen zu können
    Hier erfährst Du wie Du Dich bedanken kannst oder werde jetzt Premium Mitglied ab einer Spende von 5€ und erhalte sofortigen Zugriff auf den Downloadbereich!

    Geändert von ohlong (12. January 2016 um 13:19 Uhr)

  2. 60 Benutzer sagen Danke:

    Anzeigen

    Akio (22. April 2016),Anathos (27. December 2014),Anoand (9. March 2014),B3nnoX (31. May 2014),BlackDragon333 (20. December 2014),BlackReaper (10. June 2014),BloodiMann (24. May 2014),boemb80_inactive (18. April 2014),Callisto (17. December 2013),Cepheus (15. September 2015),Deadman_01 (22. December 2014),domineter (2. March 2014),Draagul (13. April 2014),Fierrro (11. August 2014),FIRST--LAW--FANTASY (26. March 2014),freakwatcher (25. September 2015),Gatti1983 (31. January 2015),ghosthammer_inactive (4. September 2014),Golff22 (19. December 2013),Grom (15. April 2016),heikobaer (31. August 2014),JXP7 (28. April 2014),KaneTheMagic (28. November 2015),kaschuk_inactive (8. November 2014),Katagashi (26. March 2015),Keniji (9. August 2014),kenshin057 (10. November 2014),kilosierra (6. March 2014),knanime (13. August 2016),littlepin87 (27. July 2014),LowT (14. September 2015),mar3el (24. August 2016),meins-ag (13. December 2015),midnighter (2. February 2015),nemo (12. April 2014),Noire16 (8. May 2015),noizmaker (14. January 2015),Norandas (27. December 2014),R0b95 (1. April 2015),schwiemann (1. March 2014),Sense (13. September 2014),Skinsuite (27. June 2016),Sorko (13. November 2014),Subroutine (28. September 2015),sunfun16 (6. August 2014),syncity (3. April 2014),Tarlysin (20. August 2014),Tenacious (16. September 2015),TenNoRyuu (25. October 2013),Terraner (20. January 2016),TheDarkJesus (31. December 2014),TheRealSammie (10. June 2016),Tzi (21. November 2014),Ulfhednir (5. April 2015),Vaana- (21. September 2013),VatosLocos (10. September 2015),visor (10. October 2014),Viuren (22. July 2014),Watashisan (9. March 2015),zuloo (19. June 2015)

  3. #2
    Erfahrener Otaku Avatar von ohlong
    Registriert seit
    Sep 2013
    Ort
    Im Herzen Deutschlands
    Beiträge
    151
    Punkte
    5.807
    Errungenschaften:
    TomodachisTagger Profi5000 ErfahrungspunkteHikikomori

    AW: Appleseed [JapGerDub][GerSub][1080p][BluRay]

    Reup auf Share-Online & Uploaded

Stichworte

Lesezeichen

Berechtigungen

  • Neue Themen erstellen: Nein
  • Themen beantworten: Nein
  • Anhänge hochladen: Nein
  • Beiträge bearbeiten: Nein
  •  

1 2 3 4 5 6 7 8 9 10 11 12 13 14 15 16 17 18 19 20 21 22 23 24 25 26 27 28 29 30 31 32 33 34 35 36 37 38 39 40 41 42 43 44 45 46 47 48 49 50 51 52 53 54 55 56 57 58 59 60 61 62 63 64 65 66 67 68 69 70 71 72 73 74 75 76 77 78 79 80 81 82 83 84 85 86 87 88 89 90 91 92 93 94 95 96 97 98 99 100 101 102 103 104 105 106 107 108 109 110 111 112 113 114 115 116 117 118 119 120 121 122 123 124 125 126 127 128 129 130 131 132 133 134 135 136 137 138 139 140 141 142 143 144 145 146 147 148 149 150 151 152 153 154 155 156 157 158