Ergebnis 1 bis 1 von 1

Thema: Appleseed Movie [Ger-Jap-Eng-Dub][Ger-Sub] German AC3 ML 1080p BluRay x264 - AST4u

Dieser Thread wurde noch nicht bewertet. Bewerte ihn doch, wenn er dir gefällt!
  1. #1
    Kleiner Experte Avatar von n3l0S
    Registriert seit
    Nov 2013
    Beiträge
    60
    Punkte
    4.938
    Errungenschaften:
    1000 ErfahrungspunkteHikikomori

    Appleseed Movie [Ger-Jap-Eng-Dub][Ger-Sub] German AC3 ML 1080p BluRay x264 - AST4u

    [Links sind nur für registrierte und aktivierte Nutzer sichtbar. Klicke hier um dich zu registrieren.]
    Im Jahr 2131 liegt die Welt in Trümmern. Die junge Kriegerin Deunan kämpft noch immer in den Ruinen, als sie plötzlich von ihrem früheren Freund Briareos entführt und in die futuristische Metropole Olympus verschleppt wird. Als sie erwacht, findet sie sich in einer Gesellschaft wieder, in der Menschen und Bioroids, genetische veränderte Klone, zusammenleben. Auch ihr früherer Freund Briareos hat sich verändert, da seine Körperteile durch Roboterteile ersetzt wurden. Von Hitomi, einer Bioroid, wird sie in die Abläufe der Stadt eingeweiht. Aber sie steht dieser "perfekten" Gesellschaft sehr skeptisch gegenüber, nicht zu unrecht. Die 7 Ältesten, die zusammen mit GAIA, einem Supercomputer, die Regierung stellen, scheinen doch nicht so edle Absichten zu verfolgen.

    ⚝⚝

    -----------------------------------------------------
    MEDIAINFO
    Spoiler
    Code:
    v10
    General
    Unique ID                                : 240952281293287177018161679365585624593 (0xB545B8ABC706B7ECBF3FBB64B9E5DE11)
    Complete name                            : M:\Downloads\Torrent\Appleseed.Movie.German.AC3.ML.1080p.BluRay.x264-AST4u\Appleseed.Movie.German.AC3.ML.1080p.BluRay.x264-AST4u.mkv
    Format                                   : Matroska
    Format version                           : Version 2
    File size                                : 8.05 GiB
    Duration                                 : 1h 45mn
    Overall bit rate mode                    : Variable
    Overall bit rate                         : 10.9 Mbps
    Movie name                               : APPLESEED_BD.Title9.BlurayRip
    Encoded date                             : UTC 2013-07-02 15:11:33
    Writing application                      : DVDFab
    Writing library                          : libebml v0.7.8 + libmatroska v0.8.1
    
    Video
    ID                                       : 1
    Format                                   : AVC
    Format/Info                              : Advanced Video Codec
    Format profile                           : [email protected]
    Format settings, CABAC                   : Yes
    Format settings, ReFrames                : 2 frames
    Codec ID                                 : V_MPEG4/ISO/AVC
    Duration                                 : 1h 45mn
    Bit rate mode                            : Variable
    Bit rate                                 : 9 756 Kbps
    Maximum bit rate                         : 15.0 Mbps
    Width                                    : 1 920 pixels
    Height                                   : 1 080 pixels
    Display aspect ratio                     : 16:9
    Frame rate mode                          : Constant
    Frame rate                               : 23.976 fps
    Color space                              : YUV
    Chroma subsampling                       : 4:2:0
    Bit depth                                : 8 bits
    Scan type                                : Progressive
    Bits/(Pixel*Frame)                       : 0.196
    Stream size                              : 7.19 GiB (89%)
    Default                                  : Yes
    Forced                                   : No
    
    Audio #1
    ID                                       : 2
    Format                                   : AC-3
    Format/Info                              : Audio Coding 3
    Mode extension                           : CM (complete main)
    Format settings, Endianness              : Big
    Codec ID                                 : A_AC3
    Duration                                 : 1h 45mn
    Bit rate mode                            : Constant
    Bit rate                                 : 320 Kbps
    Channel count                            : 6 channels
    Channel positions                        : Front: L C R, Side: L R, LFE
    Sampling rate                            : 48.0 KHz
    Bit depth                                : 16 bits
    Compression mode                         : Lossy
    Stream size                              : 241 MiB (3%)
    Language                                 : German
    Default                                  : Yes
    Forced                                   : No
    
    Audio #2
    ID                                       : 3
    Format                                   : AC-3
    Format/Info                              : Audio Coding 3
    Mode extension                           : CM (complete main)
    Format settings, Endianness              : Big
    Codec ID                                 : A_AC3
    Duration                                 : 1h 45mn
    Bit rate mode                            : Constant
    Bit rate                                 : 320 Kbps
    Channel count                            : 6 channels
    Channel positions                        : Front: L C R, Side: L R, LFE
    Sampling rate                            : 48.0 KHz
    Bit depth                                : 16 bits
    Compression mode                         : Lossy
    Stream size                              : 241 MiB (3%)
    Language                                 : English
    Default                                  : No
    Forced                                   : No
    
    Audio #3
    ID                                       : 4
    Format                                   : AC-3
    Format/Info                              : Audio Coding 3
    Mode extension                           : CM (complete main)
    Format settings, Endianness              : Big
    Codec ID                                 : A_AC3
    Duration                                 : 1h 45mn
    Bit rate mode                            : Constant
    Bit rate                                 : 320 Kbps
    Channel count                            : 6 channels
    Channel positions                        : Front: L C R, Side: L R, LFE
    Sampling rate                            : 48.0 KHz
    Bit depth                                : 16 bits
    Compression mode                         : Lossy
    Stream size                              : 241 MiB (3%)
    Language                                 : Japanese
    Default                                  : No
    Forced                                   : No
    
    Text #1
    ID                                       : 5
    Format                                   : VobSub
    Muxing mode                              : zlib
    Codec ID                                 : S_VOBSUB
    Codec ID/Info                            : The same subtitle format used on DVDs
    Language                                 : German
    Default                                  : Yes
    Forced                                   : No
    
    Text #2
    ID                                       : 6
    Format                                   : VobSub
    Muxing mode                              : zlib
    Codec ID                                 : S_VOBSUB
    Codec ID/Info                            : The same subtitle format used on DVDs
    Language                                 : German
    Default                                  : No
    Forced                                   : No
    
    Text #3
    ID                                       : 7
    Format                                   : VobSub
    Muxing mode                              : zlib
    Codec ID                                 : S_VOBSUB
    Codec ID/Info                            : The same subtitle format used on DVDs
    Language                                 : German
    Default                                  : No
    Forced                                   : No
    
    Menu
    00:00:00.000                             : en:(01)00:00:00:000
    00:08:03.858                             : en:(02)00:08:03:858
    00:17:04.481                             : en:(03)00:17:04:481
    00:26:15.407                             : en:(04)00:26:15:407
    00:35:01.974                             : en:(05)00:35:01:974
    00:40:46.068                             : en:(06)00:40:46:068
    00:47:56.498                             : en:(07)00:47:56:498
    00:56:24.756                             : en:(08)00:56:24:756
    01:04:07.468                             : en:(09)01:04:07:468
    01:16:39.636                             : en:(10)01:16:39:636
    01:30:00.061                             : en:(11)01:30:00:061
    01:41:24.661                             : en:(12)01:41:24:661

    -----------------------------------------------------

    ⚝⚝

    -----------------------------------------------------
    - | Uploaded | -
    - | Share-Online | -
    - | Zippyshare (für free User) | -

    File size : 8.05 GiB

    !! Lade den kleinen Inhalt (Archiv) !!
    !! Darin befindet sich alles was man zum Download benötigt !!

    -----------------------------------------------------
    kein Danke => nach 30 Tagen DOWN
    - !!! - Bitte Bedanken - !!! -


    ⚝⚝⚝⚝
    Geschützter Bereich - Bedanke dich beim Poster, um den Bereich sehen zu können
    Hier erfährst Du wie Du Dich bedanken kannst oder werde jetzt Premium Mitglied ab einer Spende von 5€ und erhalte sofortigen Zugriff auf den Downloadbereich!

    ⚝⚝⚝⚝


    - !!! - Bitte Bedanken - !!! -
    kein Danke => nach 30 Tagen DOWN
    -----------------------------------------------------
    Alternative wenn DOWN
    Spoiler
    ⚝⚝⚝⚝
    Geschützter Bereich - Bedanke dich beim Poster, um den Bereich sehen zu können
    Hier erfährst Du wie Du Dich bedanken kannst oder werde jetzt Premium Mitglied ab einer Spende von 5€ und erhalte sofortigen Zugriff auf den Downloadbereich!

    ⚝⚝⚝⚝

    Alternative wenn DOWN
    -----------------------------------------------------

    ⚝⚝
    [Links sind nur für registrierte und aktivierte Nutzer sichtbar. Klicke hier um dich zu registrieren.]

  2. 7 Benutzer sagen Danke:

    Invader_Zim (28. June 2015),JoleenLovesMina (5. July 2015),meins-ag (13. December 2015),midnighter (20. June 2015),Shi No Ryu (21. June 2015),Subroutine (28. September 2015),Terraner (20. January 2016)

Lesezeichen

Berechtigungen

  • Neue Themen erstellen: Nein
  • Themen beantworten: Nein
  • Anhänge hochladen: Nein
  • Beiträge bearbeiten: Nein
  •  

1 2 3 4 5 6 7 8 9 10 11 12 13 14 15 16 17 18 19 20 21 22 23 24 25 26 27 28 29 30 31 32 33 34 35 36 37 38 39 40 41 42 43 44 45 46 47 48 49 50 51 52 53 54 55 56 57 58 59 60 61 62 63 64 65 66 67 68 69 70 71 72 73 74 75 76 77 78 79 80 81 82 83 84 85 86 87 88 89 90 91 92 93 94 95 96 97 98 99 100 101 102 103 104 105 106 107 108 109 110 111 112 113 114 115 116 117 118 119 120 121 122 123 124 125 126 127 128 129 130 131 132 133 134 135 136 137 138 139 140 141 142 143 144 145 146 147 148 149 150 151 152 153 154 155 156 157 158