Ergebnis 1 bis 1 von 1

Thema: Appleseed XIII Ouranos [Ger-Jap-Dub][Ger-Sub] 2011 German DL ANiME 1080p BluRay x264 - iFPD

Dieser Thread wurde noch nicht bewertet. Bewerte ihn doch, wenn er dir gefällt!
  1. #1
    Kleiner Experte Avatar von n3l0S
    Registriert seit
    Nov 2013
    Beiträge
    60
    Punkte
    4.938
    Errungenschaften:
    1000 ErfahrungspunkteHikikomori

    Appleseed XIII Ouranos [Ger-Jap-Dub][Ger-Sub] 2011 German DL ANiME 1080p BluRay x264 - iFPD

    [Links sind nur für registrierte und aktivierte Nutzer sichtbar. Klicke hier um dich zu registrieren.]
    "Gekijou Remix Han Appleseed XIII" ist wie der Titel schon verrät, eine auf zwei Filme gekürzte Zusammenfassung der 13-teiligen OVA.

    ⚝⚝

    -----------------------------------------------------
    MEDIAINFO
    Spoiler
    Code:
    c10
    General
    Unique ID                                : 173934812417770613111664266585492977957 (0x82DAA0592C5B75D786A8D2E77BF47925)
    Complete name                            : G:\Download\OCH\ifpd appleseedxiiiouranos 1080p\Appleseed.XIII.Ouranos.2011.German.DL.ANiME.1080p.BluRay.x264-iFPD\ifpd-appleseedxiiiouranos-1080p.mkv
    Format                                   : Matroska
    Format version                           : Version 4 / Version 2
    File size                                : 5.06 GiB
    Duration                                 : 1h 24mn
    Overall bit rate                         : 8 569 Kbps
    Encoded date                             : UTC 2014-04-06 06:48:28
    Writing application                      : mkvmerge v6.8.0 ('Theme for Great Cities') 64bit built on Mar  2 2014 21:34:26
    Writing library                          : libebml v1.3.0 + libmatroska v1.4.1
    
    Video
    ID                                       : 1
    Format                                   : AVC
    Format/Info                              : Advanced Video Codec
    Format profile                           : [email protected]
    Format settings, CABAC                   : Yes
    Format settings, ReFrames                : 4 frames
    Codec ID                                 : V_MPEG4/ISO/AVC
    Duration                                 : 1h 24mn
    Bit rate                                 : 5 381 Kbps
    Width                                    : 1 920 pixels
    Height                                   : 1 080 pixels
    Display aspect ratio                     : 16:9
    Frame rate mode                          : Constant
    Frame rate                               : 23.976 fps
    Color space                              : YUV
    Chroma subsampling                       : 4:2:0
    Bit depth                                : 8 bits
    Scan type                                : Progressive
    Bits/(Pixel*Frame)                       : 0.108
    Stream size                              : 3.17 GiB (63%)
    Title                                    : Appleseed XIII - Ouranos (2011)
    Writing library                          : x264 core 142 r2409 d6b4e63
    Encoding settings                        : cabac=1 / ref=4 / deblock=1:0:0 / analyse=0x3:0x113 / me=umh / subme=7 / psy=1 / psy_rd=1.00:0.00 / mixed_ref=1 / me_range=16 / chroma_me=1 / trellis=1 / 8x8dct=1 / cqm=0 / deadzone=21,11 / fast_pskip=0 / chroma_qp_offset=-2 / threads=10 / lookahead_threads=1 / sliced_threads=0 / nr=0 / decimate=1 / interlaced=0 / bluray_compat=0 / constrained_intra=0 / bframes=3 / b_pyramid=2 / b_adapt=1 / b_bias=0 / direct=3 / weightb=1 / open_gop=0 / weightp=2 / keyint=250 / keyint_min=23 / scenecut=40 / intra_refresh=0 / rc_lookahead=40 / rc=crf / mbtree=1 / crf=20.0 / qcomp=0.60 / qpmin=0 / qpmax=69 / qpstep=4 / ip_ratio=1.40 / aq=1:1.00
    Default                                  : Yes
    Forced                                   : No
    
    Audio #1
    ID                                       : 2
    Format                                   : DTS
    Format/Info                              : Digital Theater Systems
    Mode                                     : 16
    Format settings, Endianness              : Big
    Codec ID                                 : A_DTS
    Duration                                 : 1h 24mn
    Bit rate mode                            : Constant
    Bit rate                                 : 1 509 Kbps
    Channel count                            : 6 channels
    Channel positions                        : Front: L C R, Side: L R, LFE
    Sampling rate                            : 48.0 KHz
    Bit depth                                : 24 bits
    Compression mode                         : Lossy
    Stream size                              : 912 MiB (18%)
    Title                                    : DTS German
    Language                                 : German
    Default                                  : Yes
    Forced                                   : No
    
    Audio #2
    ID                                       : 3
    Format                                   : DTS
    Format/Info                              : Digital Theater Systems
    Mode                                     : 16
    Format settings, Endianness              : Big
    Codec ID                                 : A_DTS
    Duration                                 : 1h 24mn
    Bit rate mode                            : Constant
    Bit rate                                 : 1 509 Kbps
    Channel count                            : 6 channels
    Channel positions                        : Front: L C R, Side: L R, LFE
    Sampling rate                            : 48.0 KHz
    Bit depth                                : 24 bits
    Compression mode                         : Lossy
    Stream size                              : 912 MiB (18%)
    Title                                    : DTS JPN
    Language                                 : Japanese
    Default                                  : No
    Forced                                   : No
    
    Text
    ID                                       : 4
    Format                                   : UTF-8
    Codec ID                                 : S_TEXT/UTF8
    Codec ID/Info                            : UTF-8 Plain Text
    Title                                    : Forced
    Language                                 : German
    Default                                  : Yes
    Forced                                   : No
    
    Menu
    00:00:00.000                             : en:00:00:00.000
    00:09:34.324                             : en:00:09:34.324
    00:19:41.097                             : en:00:19:41.097
    00:29:16.046                             : en:00:29:16.046
    00:39:18.356                             : en:00:39:18.356
    00:50:46.418                             : en:00:50:46.418
    00:59:47.209                             : en:00:59:47.209
    01:10:55.001                             : en:01:10:55.001
    01:19:19.129                             : en:01:19:19.129

    -----------------------------------------------------

    ⚝⚝

    -----------------------------------------------------
    - | Uploaded | -
    - | Share-Online | -
    - | Zippyshare (für free User) | -

    File size : 5.06 GiB

    !! Lade den kleinen Inhalt (Archiv) !!
    !! Darin befindet sich alles was man zum Download benötigt !!

    -----------------------------------------------------
    kein Danke => nach 30 Tagen DOWN
    - !!! - Bitte Bedanken - !!! -


    ⚝⚝⚝⚝
    Geschützter Bereich - Bedanke dich beim Poster, um den Bereich sehen zu können
    Hier erfährst Du wie Du Dich bedanken kannst oder werde jetzt Premium Mitglied ab einer Spende von 5€ und erhalte sofortigen Zugriff auf den Downloadbereich!

    ⚝⚝⚝⚝


    - !!! - Bitte Bedanken - !!! -
    kein Danke => nach 30 Tagen DOWN
    -----------------------------------------------------
    Alternative wenn DOWN
    Spoiler
    ⚝⚝⚝⚝
    Geschützter Bereich - Bedanke dich beim Poster, um den Bereich sehen zu können
    Hier erfährst Du wie Du Dich bedanken kannst oder werde jetzt Premium Mitglied ab einer Spende von 5€ und erhalte sofortigen Zugriff auf den Downloadbereich!

    ⚝⚝⚝⚝

    Alternative wenn DOWN
    -----------------------------------------------------

    ⚝⚝
    [Links sind nur für registrierte und aktivierte Nutzer sichtbar. Klicke hier um dich zu registrieren.]

  2. 6 Benutzer sagen Danke:

    Aizen-Sama (20. November 2016),Hollow-Ichigo (13. April 2016),midnighter (20. June 2015),Shi No Ryu (21. June 2015),Skinsuite (20. June 2015),Subroutine (28. September 2015)

Lesezeichen

Berechtigungen

  • Neue Themen erstellen: Nein
  • Themen beantworten: Nein
  • Anhänge hochladen: Nein
  • Beiträge bearbeiten: Nein
  •  

1 2 3 4 5 6 7 8 9 10 11 12 13 14 15 16 17 18 19 20 21 22 23 24 25 26 27 28 29 30 31 32 33 34 35 36 37 38 39 40 41 42 43 44 45 46 47 48 49 50 51 52 53 54 55 56 57 58 59 60 61 62 63 64 65 66 67 68 69 70 71 72 73 74 75 76 77 78 79 80 81 82 83 84 85 86 87 88 89 90 91 92 93 94 95 96 97 98 99 100 101 102 103 104 105 106 107 108 109 110 111 112 113 114 115 116 117 118 119 120 121 122 123 124 125 126 127 128 129 130 131 132 133 134 135 136 137 138 139 140 141 142 143 144 145 146 147 148 149 150 151 152 153 154 155 156 157 158