Ergebnis 1 bis 1 von 1

Thema: Berserk: Ougon Jidai Hen - Das Goldene Zeitalter I-III [Ger-Jap-Dub][Ger-Sub][AC-3/DTS/DTS-HD][1080p][BluRay] - TvR

Dieser Thread wurde noch nicht bewertet. Bewerte ihn doch, wenn er dir gefällt!
  1. #1
    United we Stand Avatar von 00Ryuji00
    Registriert seit
    Oct 2012
    Beiträge
    3.902
    Punkte
    99.823
    Errungenschaften:
    TomodachisGang LeaderHikikomoriTagger Amateur50000 Erfahrungspunkte

    Berserk: Ougon Jidai Hen - Das Goldene Zeitalter I-III [Ger-Jap-Dub][Ger-Sub][AC-3/DTS/DTS-HD][1080p][BluRay] - TvR


    Berserk: Ougon Jidai Hen

    ベルセルク 黄金時代篇
    Berserk: The Golden Age Arc
    Berserk: Das Goldene Zeitalter
    Berserk Saga



    Kurzbeschreibung:
    Zitat Zitat von AniSearch.com
    Guts, ein unheimlich starker Schwertkämpfer und Söldner, hat wenig Struktur in seinem Leben und kämpft lediglich in einer Schlacht nach der anderen. Sein Leben ändert sich jedoch, als er den wunderschönen und charismatischen Griffith, der Anführer einer Söldnerbande namens "Band of the Hawks", trifft und von ihm besiegt wird. Nachdem sich Guts Griffith freiwillig unterwirft und seiner Sölnergruppe beitritt, beginnt die Beziehung zwischen den beiden förmlich zu erblühen. Doch die einsame Schwertkämpferin Caska, ein älteres Mitglied der Hawks, weigert sich, Guts zu akzeptieren. Während die beiden heldenhaften Schwertkämpfer Seite an Seite kämpfen, versucht Griffith an mehr Macht zu gelangen, scheinbar um seine mysteriösen und prophezeiten Ziele zu erreichen. Wie weit werden die beiden gehen, um diese zu erreichen? Wohin wird sie das Schicksal führen?
    Spieldauer: 97min
    Genre: Actiondrama
    Nebengenres: Action, Drama, Fantasy, Männlich, Übermäßige Gewaltdarstellung
    Jahr: 2012
    Sprache: Deutsch, Japanisch
    Untertitel: Deutsch
    Größe pro Folge: ~ 6,8GB/8,1GB/11,3GB
    Episodenanzahl: 3/3
    Format: MKV
    Auflösung: 1080p
    Videocodec: x264 (AVC)
    Audiocodec: AC3, DTS, DTS-HD
    Releasegruppe: TvR
    Hoster: Uploaded, Share-Online

    MediaInfo
    Film 1
    Code:
    
    Format                                   : Matroska
    Format version                           : Version 4 / Version 2
    File size                                : 6.78 GiB
    Duration                                 : 1h 16mn
    Overall bit rate                         : 12.6 Mbps
    Encoded date                             : UTC 2015-03-22 18:44:28
    Writing application                      : mkvmerge v7.7.0 ('Six Voices') 64bit built on Feb 28 2015 23:39:33
    Writing library                          : libebml v1.3.1 + libmatroska v1.4.2
    Attachment                               : Yes
    
    Video
    ID                                       : 1
    Format                                   : AVC
    Format/Info                              : Advanced Video Codec
    Format profile                           : [email protected]
    Format settings, CABAC                   : Yes
    Format settings, ReFrames                : 4 frames
    Codec ID                                 : V_MPEG4/ISO/AVC
    Duration                                 : 1h 16mn
    Bit rate                                 : 10.4 Mbps
    Width                                    : 1 920 pixels
    Height                                   : 812 pixels
    Display aspect ratio                     : 2.35:1
    Frame rate mode                          : Constant
    Frame rate                               : 23.976 fps
    Color space                              : YUV
    Chroma subsampling                       : 4:2:0
    Bit depth                                : 8 bits
    Scan type                                : Progressive
    Bits/(Pixel*Frame)                       : 0.280
    Stream size                              : 5.49 GiB (81%)
    Title                                    : Berserk - Das goldene Zeitalter - 2012
    Writing library                          : x264 core 144 r2525 40bb568
    Encoding settings                        : cabac=1 / ref=4 / deblock=1:-1:-1 / analyse=0x3:0x113 / me=umh / subme=10 / psy=1 / psy_rd=1.20:0.00 / mixed_ref=1 / me_range=32 / chroma_me=1 / trellis=2 / 8x8dct=1 / cqm=0 / deadzone=21,11 / fast_pskip=1 / chroma_qp_offset=-2 / threads=12 / lookahead_threads=1 / sliced_threads=0 / nr=0 / decimate=0 / interlaced=0 / bluray_compat=0 / constrained_intra=0 / bframes=5 / b_pyramid=2 / b_adapt=2 / b_bias=0 / direct=3 / weightb=1 / open_gop=0 / weightp=2 / keyint=240 / keyint_min=23 / scenecut=40 / intra_refresh=0 / rc_lookahead=50 / rc=2pass / mbtree=1 / bitrate=10449 / ratetol=1.0 / qcomp=0.80 / qpmin=10 / qpmax=51 / qpstep=4 / cplxblur=20.0 / qblur=0.5 / vbv_maxrate=38000 / vbv_bufsize=38000 / nal_hrd=none / filler=0 / ip_ratio=1.20 / aq=1:0.60
    Language                                 : Japanese
    Default                                  : Yes
    Forced                                   : No
    Color primaries                          : BT.709
    Transfer characteristics                 : BT.709
    Matrix coefficients                      : BT.709
    
    Audio #1
    ID                                       : 2
    Format                                   : DTS
    Format/Info                              : Digital Theater Systems
    Mode                                     : 16
    Format settings, Endianness              : Big
    Codec ID                                 : A_DTS
    Duration                                 : 1h 16mn
    Bit rate mode                            : Constant
    Bit rate                                 : 1 509 Kbps
    Channel count                            : 6 channels
    Channel positions                        : Front: L C R, Side: L R, LFE
    Sampling rate                            : 48.0 KHz
    Bit depth                                : 24 bits
    Compression mode                         : Lossy
    Stream size                              : 831 MiB (12%)
    Title                                    : DTS 5.1 @ 1 509 kbps
    Language                                 : German
    Default                                  : Yes
    Forced                                   : No
    
    Audio #2
    ID                                       : 3
    Format                                   : AC-3
    Format/Info                              : Audio Coding 3
    Mode extension                           : CM (complete main)
    Format settings, Endianness              : Big
    Codec ID                                 : A_AC3
    Duration                                 : 1h 16mn
    Bit rate mode                            : Constant
    Bit rate                                 : 640 Kbps
    Channel count                            : 6 channels
    Channel positions                        : Front: L C R, Side: L R, LFE
    Sampling rate                            : 48.0 KHz
    Bit depth                                : 16 bits
    Compression mode                         : Lossy
    Stream size                              : 352 MiB (5%)
    Title                                    : AC3 5.1 @ 640 kbps
    Language                                 : Japanese
    Default                                  : No
    Forced                                   : No
    
    Text #1
    ID                                       : 4
    Format                                   : PGS
    Muxing mode                              : zlib
    Codec ID                                 : S_HDMV/PGS
    Codec ID/Info                            : The same subtitle format used on BDs/HD-DVDs
    Title                                    : Forced PGS
    Language                                 : German
    Default                                  : Yes
    Forced                                   : Yes
    
    Text #2
    ID                                       : 5
    Format                                   : VobSub
    Muxing mode                              : zlib
    Codec ID                                 : S_VOBSUB
    Codec ID/Info                            : The same subtitle format used on DVDs
    Title                                    : Forced VobSub
    Language                                 : German
    Default                                  : No
    Forced                                   : Yes
    
    Text #3
    ID                                       : 6
    Format                                   : PGS
    Muxing mode                              : zlib
    Codec ID                                 : S_HDMV/PGS
    Codec ID/Info                            : The same subtitle format used on BDs/HD-DVDs
    Title                                    : Full PGS
    Language                                 : German
    Default                                  : No
    Forced                                   : No
    
    Text #4
    ID                                       : 7
    Format                                   : VobSub
    Muxing mode                              : zlib
    Codec ID                                 : S_VOBSUB
    Codec ID/Info                            : The same subtitle format used on DVDs
    Title                                    : Full VobSub
    Language                                 : German
    Default                                  : No
    Forced                                   : No
    
    Menu
    00:00:00.000                             : en:00:00:00.000
    00:09:33.156                             : en:00:09:33.156
    00:17:28.839                             : en:00:17:28.839
    00:27:24.184                             : en:00:27:24.184
    00:35:56.654                             : en:00:35:56.654
    00:44:33.462                             : en:00:44:33.462
    00:54:37.524                             : en:00:54:37.524
    01:04:30.909                             : en:01:04:30.909
    01:12:12.870                             : en:01:12:12.870
    Film 2
    Code:
    
    Format                                   : Matroska
    Format version                           : Version 4 / Version 2
    File size                                : 8.13 GiB
    Duration                                 : 1h 32mn
    Overall bit rate                         : 12.6 Mbps
    Encoded date                             : UTC 2015-03-24 08:44:48
    Writing application                      : mkvmerge v7.7.0 ('Six Voices') 64bit built on Feb 28 2015 23:39:33
    Writing library                          : libebml v1.3.1 + libmatroska v1.4.2
    Attachment                               : Yes
    
    Video
    ID                                       : 1
    Format                                   : AVC
    Format/Info                              : Advanced Video Codec
    Format profile                           : [email protected]
    Format settings, CABAC                   : Yes
    Format settings, ReFrames                : 4 frames
    Codec ID                                 : V_MPEG4/ISO/AVC
    Duration                                 : 1h 32mn
    Bit rate                                 : 10.4 Mbps
    Width                                    : 1 920 pixels
    Height                                   : 816 pixels
    Display aspect ratio                     : 2.35:1
    Frame rate mode                          : Constant
    Frame rate                               : 23.976 fps
    Color space                              : YUV
    Chroma subsampling                       : 4:2:0
    Bit depth                                : 8 bits
    Scan type                                : Progressive
    Bits/(Pixel*Frame)                       : 0.277
    Stream size                              : 6.58 GiB (81%)
    Title                                    : Berserk - Das goldene Zeitalter II - 2012
    Writing library                          : x264 core 144 r2525 40bb568
    Encoding settings                        : cabac=1 / ref=4 / deblock=1:-1:-1 / analyse=0x3:0x113 / me=umh / subme=10 / psy=1 / psy_rd=1.20:0.00 / mixed_ref=1 / me_range=32 / chroma_me=1 / trellis=2 / 8x8dct=1 / cqm=0 / deadzone=21,11 / fast_pskip=1 / chroma_qp_offset=-2 / threads=12 / lookahead_threads=1 / sliced_threads=0 / nr=0 / decimate=0 / interlaced=0 / bluray_compat=0 / constrained_intra=0 / bframes=5 / b_pyramid=2 / b_adapt=2 / b_bias=0 / direct=3 / weightb=1 / open_gop=0 / weightp=2 / keyint=240 / keyint_min=23 / scenecut=40 / intra_refresh=0 / rc_lookahead=50 / rc=2pass / mbtree=1 / bitrate=10389 / ratetol=1.0 / qcomp=0.80 / qpmin=10 / qpmax=51 / qpstep=4 / cplxblur=20.0 / qblur=0.5 / vbv_maxrate=38000 / vbv_bufsize=38000 / nal_hrd=none / filler=0 / ip_ratio=1.20 / aq=1:0.60
    Language                                 : Japanese
    Default                                  : Yes
    Forced                                   : No
    Color primaries                          : BT.709
    Transfer characteristics                 : BT.709
    Matrix coefficients                      : BT.709
    
    Audio #1
    ID                                       : 2
    Format                                   : DTS
    Format/Info                              : Digital Theater Systems
    Mode                                     : 16
    Format settings, Endianness              : Big
    Codec ID                                 : A_DTS
    Duration                                 : 1h 32mn
    Bit rate mode                            : Constant
    Bit rate                                 : 1 509 Kbps
    Channel count                            : 6 channels
    Channel positions                        : Front: L C R, Side: L R, LFE
    Sampling rate                            : 48.0 KHz
    Bit depth                                : 24 bits
    Compression mode                         : Lossy
    Stream size                              : 1 001 MiB (12%)
    Title                                    : DTS 5.1 @ 1 509 kbps
    Language                                 : German
    Default                                  : Yes
    Forced                                   : No
    
    Audio #2
    ID                                       : 3
    Format                                   : AC-3
    Format/Info                              : Audio Coding 3
    Mode extension                           : CM (complete main)
    Format settings, Endianness              : Big
    Codec ID                                 : A_AC3
    Duration                                 : 1h 32mn
    Bit rate mode                            : Constant
    Bit rate                                 : 640 Kbps
    Channel count                            : 6 channels
    Channel positions                        : Front: L C R, Side: L R, LFE
    Sampling rate                            : 48.0 KHz
    Bit depth                                : 16 bits
    Compression mode                         : Lossy
    Stream size                              : 425 MiB (5%)
    Title                                    : AC3 5.1 @ 640 kbps
    Language                                 : English
    Default                                  : No
    Forced                                   : No
    
    Text #1
    ID                                       : 4
    Format                                   : PGS
    Muxing mode                              : zlib
    Codec ID                                 : S_HDMV/PGS
    Codec ID/Info                            : The same subtitle format used on BDs/HD-DVDs
    Title                                    : Full PGS
    Language                                 : German
    Default                                  : No
    Forced                                   : No
    
    Text #2
    ID                                       : 5
    Format                                   : VobSub
    Muxing mode                              : zlib
    Codec ID                                 : S_VOBSUB
    Codec ID/Info                            : The same subtitle format used on DVDs
    Title                                    : Full VobSub
    Language                                 : German
    Default                                  : No
    Forced                                   : No
    
    Menu
    00:00:00.000                             : en:00:00:00.000
    00:10:12.779                             : en:00:10:12.779
    00:25:29.737                             : en:00:25:29.737
    00:32:34.161                             : en:00:32:34.161
    00:42:08.693                             : en:00:42:08.693
    00:52:30.189                             : en:00:52:30.189
    01:04:35.872                             : en:01:04:35.872
    01:13:04.630                             : en:01:13:04.630
    01:27:38.378                             : en:01:27:38.378
    Film 3
    Code:
    
    Format                                   : Matroska
    Format version                           : Version 4 / Version 2
    File size                                : 11.3 GiB
    Duration                                 : 1h 47mn
    Overall bit rate mode                    : Variable
    Overall bit rate                         : 15.1 Mbps
    Encoded date                             : UTC 2015-03-30 16:05:41
    Writing application                      : mkvmerge v7.7.0 ('Six Voices') 64bit built on Feb 28 2015 23:39:33
    Writing library                          : libebml v1.3.1 + libmatroska v1.4.2
    Attachment                               : Yes
    
    Video
    ID                                       : 1
    Format                                   : AVC
    Format/Info                              : Advanced Video Codec
    Format profile                           : [email protected]
    Format settings, CABAC                   : Yes
    Format settings, ReFrames                : 4 frames
    Codec ID                                 : V_MPEG4/ISO/AVC
    Duration                                 : 1h 47mn
    Nominal bit rate                         : 10.5 Mbps
    Width                                    : 1 920 pixels
    Height                                   : 812 pixels
    Display aspect ratio                     : 2.35:1
    Frame rate mode                          : Constant
    Frame rate                               : 23.976 fps
    Color space                              : YUV
    Chroma subsampling                       : 4:2:0
    Bit depth                                : 8 bits
    Scan type                                : Progressive
    Bits/(Pixel*Frame)                       : 0.280
    Title                                    : Berserk - Das goldene Zeitalter III - 2013
    Writing library                          : x264 core 144 r2525 40bb568
    Encoding settings                        : cabac=1 / ref=4 / deblock=1:-1:-1 / analyse=0x3:0x113 / me=umh / subme=10 / psy=1 / psy_rd=1.20:0.00 / mixed_ref=1 / me_range=32 / chroma_me=1 / trellis=2 / 8x8dct=1 / cqm=0 / deadzone=21,11 / fast_pskip=1 / chroma_qp_offset=-2 / threads=12 / lookahead_threads=1 / sliced_threads=0 / nr=0 / decimate=0 / interlaced=0 / bluray_compat=0 / constrained_intra=0 / bframes=5 / b_pyramid=2 / b_adapt=2 / b_bias=0 / direct=3 / weightb=1 / open_gop=0 / weightp=2 / keyint=240 / keyint_min=23 / scenecut=40 / intra_refresh=0 / rc_lookahead=50 / rc=2pass / mbtree=1 / bitrate=10465 / ratetol=1.0 / qcomp=0.80 / qpmin=10 / qpmax=51 / qpstep=4 / cplxblur=20.0 / qblur=0.5 / vbv_maxrate=38000 / vbv_bufsize=38000 / nal_hrd=none / filler=0 / ip_ratio=1.20 / aq=1:0.60
    Language                                 : English
    Default                                  : Yes
    Forced                                   : No
    Color primaries                          : BT.709
    Transfer characteristics                 : BT.709
    Matrix coefficients                      : BT.709
    
    Audio #1
    ID                                       : 2
    Format                                   : DTS
    Format/Info                              : Digital Theater Systems
    Format profile                           : MA / Core
    Mode                                     : 16
    Format settings, Endianness              : Big
    Codec ID                                 : A_DTS
    Duration                                 : 1h 47mn
    Bit rate mode                            : Variable
    Bit rate                                 : Unknown / 1 509 Kbps
    Channel count                            : 6 channels
    Channel positions                        : Front: L C R, Side: L R, LFE
    Sampling rate                            : 48.0 KHz
    Bit depth                                : 24 bits
    Compression mode                         : Lossless / Lossy
    Title                                    : DTS-HD MA 5.1
    Language                                 : German
    Default                                  : Yes
    Forced                                   : No
    
    Audio #2
    ID                                       : 3
    Format                                   : AC-3
    Format/Info                              : Audio Coding 3
    Mode extension                           : CM (complete main)
    Format settings, Endianness              : Big
    Codec ID                                 : A_AC3
    Duration                                 : 1h 47mn
    Bit rate mode                            : Constant
    Bit rate                                 : 640 Kbps
    Channel count                            : 6 channels
    Channel positions                        : Front: L C R, Side: L R, LFE
    Sampling rate                            : 48.0 KHz
    Bit depth                                : 16 bits
    Compression mode                         : Lossy
    Stream size                              : 493 MiB (4%)
    Title                                    : AC3 5.1 @ 640 kbps
    Language                                 : Japanese
    Default                                  : No
    Forced                                   : No
    
    Text #1
    ID                                       : 4
    Format                                   : PGS
    Muxing mode                              : zlib
    Codec ID                                 : S_HDMV/PGS
    Codec ID/Info                            : The same subtitle format used on BDs/HD-DVDs
    Title                                    : Forced PGS
    Language                                 : German
    Default                                  : Yes
    Forced                                   : Yes
    
    Text #2
    ID                                       : 5
    Format                                   : VobSub
    Muxing mode                              : zlib
    Codec ID                                 : S_VOBSUB
    Codec ID/Info                            : The same subtitle format used on DVDs
    Title                                    : Forced VobSub
    Language                                 : German
    Default                                  : No
    Forced                                   : Yes
    
    Text #3
    ID                                       : 6
    Format                                   : PGS
    Muxing mode                              : zlib
    Codec ID                                 : S_HDMV/PGS
    Codec ID/Info                            : The same subtitle format used on BDs/HD-DVDs
    Title                                    : Full PGS
    Language                                 : German
    Default                                  : No
    Forced                                   : No
    
    Text #4
    ID                                       : 7
    Format                                   : VobSub
    Muxing mode                              : zlib
    Codec ID                                 : S_VOBSUB
    Codec ID/Info                            : The same subtitle format used on DVDs
    Title                                    : Full VobSub
    Language                                 : German
    Default                                  : No
    Forced                                   : No




    Geschützter Bereich - Bedanke dich beim Poster, um den Bereich sehen zu können
    Hier erfährst Du wie Du Dich bedanken kannst oder werde jetzt Premium Mitglied ab einer Spende von 5€ und erhalte sofortigen Zugriff auf den Downloadbereich!


    [Links sind nur für registrierte und aktivierte Nutzer sichtbar. Klicke hier um dich zu registrieren.]
    Geändert von 00Ryuji00 (13. October 2015 um 17:26 Uhr)
    !!!Alle Anliegen bezüglich Uploads werden nur mit direktem Threadlink zum Angebot bearbeitet!!!

    Re-Uploadanfragen nur per PN - Ihr könnt mir auch Listen schicken

    Re-Uploads erfolgen meist innerhalb 24h, kann aber auch bis zu 7 Tage dauern

    [Links sind nur für registrierte und aktivierte Nutzer sichtbar. Klicke hier um dich zu registrieren.] | [Links sind nur für registrierte und aktivierte Nutzer sichtbar. Klicke hier um dich zu registrieren.] | >[Links sind nur für registrierte und aktivierte Nutzer sichtbar. Klicke hier um dich zu registrieren.]<
    [Links sind nur für registrierte und aktivierte Nutzer sichtbar. Klicke hier um dich zu registrieren.]

  2. 101 Benutzer sagen Danke:

    Anzeigen

    Aikanary (18. June 2016),Always_Unknown (9. February 2016),And9 (4. February 2016),Bartfratze (2. October 2015),basdi (17. February 2016),Beasz (17. June 2016),Blackdragon1702 (20. October 2015),Bloodyair (27. September 2016),bra1nbug94 (13. September 2015),Buschkilla (24. June 2016),chopper23 (18. August 2015),Countermonk (6. September 2015),danielklis (6. June 2016),data_ghoul (7. September 2015),Demichi (7. January 2016),DevilStyleZ (29. June 2016),donbilbo950 (28. June 2016),donma (18. August 2015),Dragon29 (24. November 2015),dreambird1973 (20. April 2016),drokan (1. September 2015),FIRST--LAW--FANTASY (28. October 2015),Frag0042 (28. April 2016),freakwatcher (23. September 2015),GagaManamanga (1. October 2016),Ghostraven (17. October 2015),Grahf (23. May 2016),Griever (19. December 2015),Grom (15. April 2016),Guvi (28. April 2016),HannesLN (1. May 2016),herrwefer (12. October 2015),Hollow-Ichigo (28. April 2016),Holzmodem (23. December 2015),illrage (9. July 2016),IN4T0R (11. July 2016),Intege (3. February 2016),iPwnage (25. April 2016),jetjojo (25. October 2015),Jubba (11. September 2015),Kaktusmensch (18. January 2016),Keiler (9. July 2016),keku (11. June 2016),Kirdock (21. November 2015),Kthulhut (5. March 2016),kyoto (22. November 2015),LoganKell (20. August 2016),marco.xf (13. September 2016),meteora87 (21. August 2015),Miauundso (20. May 2016),midnighter (22. August 2015),Miiko_Chan (12. June 2016),Miriweth (12. December 2015),mischacraft (7. June 2016),misterdsl (11. October 2015),Morbi2k15 (27. December 2015),Mr.Shit (21. July 2016),MrHashtag (29. April 2016),MutationACE (21. June 2016),Nijazi2000 (9. March 2016),NLHTeddyNLH (12. November 2015),nyabi (27. January 2016),old nick (3. July 2016),Olize (2. July 2016),OtakuTim (1. July 2016),peniku8 (13. October 2015),Razel86 (8. May 2016),re.tischi (4. January 2016),ribery_1980 (5. July 2016),sangheilie (12. December 2015),Schattenmagier (16. December 2015),Scruffy (27. January 2016),Seidou (9. September 2015),Shadowa (30. August 2016),Shana:3 (25. December 2015),Shinosenshi (23. September 2015),Shinu Luna (21. December 2015),shokinn (2. July 2016),Skinsuite (9. September 2015),Smitecrawler (17. February 2016),Tana-kun (29. December 2015),Tarlysin (19. August 2015),Tekk (18. August 2015),Tenma90 (28. July 2016),Terraner (3. February 2016),ThaProduca (29. November 2015),TheDarkJesus (5. November 2015),TheRealSammie (9. June 2016),torusso12 (7. February 2016),ubongo (20. August 2015),Usumaina (15. February 2016),VatosLocos (21. August 2015),Wakaba (3. March 2016),wasweisich (7. January 2016),Winchester1889 (30. November 2016),xellos (1. May 2016),xEssentiaLx (21. March 2016),Xionic (11. October 2015),yarouze (19. May 2016),Yoma (19. July 2016),zarro (8. July 2016)

Lesezeichen

Berechtigungen

  • Neue Themen erstellen: Nein
  • Themen beantworten: Nein
  • Anhänge hochladen: Nein
  • Beiträge bearbeiten: Nein
  •  

1 2 3 4 5 6 7 8 9 10 11 12 13 14 15 16 17 18 19 20 21 22 23 24 25 26 27 28 29 30 31 32 33 34 35 36 37 38 39 40 41 42 43 44 45 46 47 48 49 50 51 52 53 54 55 56 57 58 59 60 61 62 63 64 65 66 67 68 69 70 71 72 73 74 75 76 77 78 79 80 81 82 83 84 85 86 87 88 89 90 91 92 93 94 95 96 97 98 99 100 101 102 103 104 105 106 107 108 109 110 111 112 113 114 115 116 117 118 119 120 121 122 123 124 125 126 127 128 129 130 131 132 133 134 135 136 137 138 139 140 141 142 143 144 145 146 147 148 149 150 151 152 153 154 155 156 157 158