Ergebnis 1 bis 1 von 1

Thema: Boruto: Naruto the Movie [Kor-Dub][Ger-Sub][720p][WebRip] - naruto-tube

Dieser Thread wurde noch nicht bewertet. Bewerte ihn doch, wenn er dir gefällt!
  1. #1
    Avatar von so1k
    Registriert seit
    Aug 2014
    Beiträge
    316
    Punkte
    4.229
    Errungenschaften:
    1000 ErfahrungspunkteTomodachisHikikomori

    Boruto: Naruto the Movie [Kor-Dub][Ger-Sub][720p][WebRip] - naruto-tube


    Boruto: Naruto the Movie
    Boruto: Naruto - Der Film





    Kurzbeschreibung:
    Zitat Zitat von AniSearch.com
    Boruto ist der Sohn des siebten Hokage, Naruto, der seinen Vater zurückweist. In Wirklichkeit will er seinen Vater übertreffen, der als Held angesehen wird. Er trifft dessen alten Freund Sasuke und möchte sein Schüler werden.

    [Source: japaniac.de]

    Spieldauer: 96min
    Genre: Action
    Nebengenres: Comedy, Martial Arts, Shounen, Super Power
    Jahr: 2015
    Sprache: Koreanisch
    Untertitel: Deutsch
    Größe pro Folge: ~912 MiB
    Episodenanzahl: 1/1
    Format: MP4
    Auflösung: 720p (16:9)
    Videocodec: x264 (AVC)
    Audiocodec: AAC
    Releasegruppe: naruto-tube
    Hoster: Uploaded, Share-Online (kommt noch)


    MediaInfo

    Code:
    
    Format                                   : MPEG-4
    Format profile                           : Base Media
    Codec ID                                 : isom
    File size                                : 912 MiB
    Duration                                 : 1h 34mn
    Overall bit rate mode                    : Variable
    Overall bit rate                         : 1 343 Kbps
    Encoded date                             : UTC 2015-12-30 18:15:33
    Tagged date                              : UTC 2015-12-30 18:15:33
    
    Video
    ID                                       : 1
    Format                                   : AVC
    Format/Info                              : Advanced Video Codec
    Format profile                           : [email protected]
    Format settings, CABAC                   : No
    Format settings, ReFrames                : 3 frames
    Codec ID                                 : avc1
    Codec ID/Info                            : Advanced Video Coding
    Duration                                 : 1h 34mn
    Source duration                          : 1h 34mn
    Bit rate                                 : 1 147 Kbps
    Maximum bit rate                         : 7 094 Kbps
    Width                                    : 1 280 pixels
    Height                                   : 720 pixels
    Display aspect ratio                     : 16:9
    Frame rate mode                          : Variable
    Frame rate                               : 29.970 fps
    Minimum frame rate                       : 7.312 fps
    Maximum frame rate                       : 29.980 fps
    Color space                              : YUV
    Chroma subsampling                       : 4:2:0
    Bit depth                                : 8 bits
    Scan type                                : Progressive
    Bits/(Pixel*Frame)                       : 0.042
    Stream size                              : 779 MiB (85%)
    Source stream size                       : 779 MiB (85%)
    Writing library                          : x264 core 132
    Encoding settings                        : cabac=0 / ref=3 / deblock=1:0:0 / analyse=0x1:0x111 / me=hex / subme=7 / psy=1 / psy_rd=1.00:0.00 / mixed_ref=1 / me_range=16 / chroma_me=1 / trellis=1 / 8x8dct=0 / cqm=0 / deadzone=21,11 / fast_pskip=1 / chroma_qp_offset=-2 / threads=36 / lookahead_threads=5 / sliced_threads=0 / nr=0 / decimate=1 / interlaced=0 / bluray_compat=0 / constrained_intra=0 / bframes=0 / weightp=0 / keyint=250 / keyint_min=25 / scenecut=40 / intra_refresh=0 / rc_lookahead=40 / rc=crf / mbtree=1 / crf=24.0 / qcomp=0.60 / qpmin=0 / qpmax=50 / qpstep=4 / ip_ratio=1.40 / aq=1:1.00
    Language                                 : English
    Tagged date                              : UTC 2015-12-30 18:17:03
    
    Audio
    ID                                       : 2
    Format                                   : AAC
    Format/Info                              : Advanced Audio Codec
    Format profile                           : LC
    Codec ID                                 : 40
    Duration                                 : 1h 34mn
    Source duration                          : 1h 34mn
    Bit rate mode                            : Variable
    Bit rate                                 : 192 Kbps
    Maximum bit rate                         : 202 Kbps
    Channel(s)                               : 2 channels
    Channel positions                        : Front: L R
    Sampling rate                            : 44.1 KHz
    Compression mode                         : Lossy
    Stream size                              : 130 MiB (14%)
    Source stream size                       : 130 MiB (14%)
    Language                                 : English
    Tagged date                              : UTC 2015-12-30 18:17:03
    
    





    Geschützter Bereich - Bedanke dich beim Poster, um den Bereich sehen zu können
    Hier erfährst Du wie Du Dich bedanken kannst oder werde jetzt Premium Mitglied ab einer Spende von 5€ und erhalte sofortigen Zugriff auf den Downloadbereich!


    [Links sind nur für registrierte und aktivierte Nutzer sichtbar. Klicke hier um dich zu registrieren.]

  2. 27 Benutzer sagen Danke:

    assa (14. July 2016),Black Lotus (30. August 2016),Bull (21. June 2016),DarthToast (21. June 2016),herrwefer (15. June 2016),Hisamaki (16. June 2016),iCapuz (13. July 2016),julius6137 (6. July 2016),Kartox (15. August 2016),kashmael (1. August 2016),lazius (16. November 2016),midnighter (6. August 2016),morpheus243 (24. July 2016),MutationACE (21. June 2016),Neyzu (3. August 2016),Niggoh23 (24. June 2016),nived (4. December 2016),OtakuTim (18. June 2016),Ravyn2805 (27. June 2016),Runata (19. June 2016),schubway (21. July 2016),Shirobaka (7. August 2016),SmokingTea (16. June 2016),SONNYxq (22. June 2016),TesserLP (5. October 2016),tigerhai (6. July 2016),Whitechapel93 (24. June 2016)

Lesezeichen

Berechtigungen

  • Neue Themen erstellen: Nein
  • Themen beantworten: Nein
  • Anhänge hochladen: Nein
  • Beiträge bearbeiten: Nein
  •  

1 2 3 4 5 6 7 8 9 10 11 12 13 14 15 16 17 18 19 20 21 22 23 24 25 26 27 28 29 30 31 32 33 34 35 36 37 38 39 40 41 42 43 44 45 46 47 48 49 50 51 52 53 54 55 56 57 58 59 60 61 62 63 64 65 66 67 68 69 70 71 72 73 74 75 76 77 78 79 80 81 82 83 84 85 86 87 88 89 90 91 92 93 94 95 96 97 98 99 100 101 102 103 104 105 106 107 108 109 110 111 112 113 114 115 116 117 118 119 120 121 122 123 124 125 126 127 128 129 130 131 132 133 134 135 136 137 138 139 140 141 142 143 144 145 146 147 148 149 150 151 152 153 154 155 156 157 158