Ergebnis 1 bis 1 von 1

Thema: Cowboy Bebop MOVIE [Ger-Jap-Eng-Dub][Ger-Eng-Sub][720p/1080p][Bluray]-Li0N

Dieser Thread wurde noch nicht bewertet. Bewerte ihn doch, wenn er dir gefällt!
  1. #1
    Kami-sama Avatar von galudo
    Registriert seit
    Mar 2015
    Beiträge
    1.371
    Punkte
    26.064
    Errungenschaften:
    TomodachisTagger ProfiHyperaktivSenpaiGang Leader

    Cowboy Bebop MOVIE [Ger-Jap-Eng-Dub][Ger-Eng-Sub][720p/1080p][Bluray]-Li0N

    Cowboy Bebop: Tengoku no Tobira
    カウボーイビバップ天国の扉
    Cowboy Bebop: The Movie
    Cowboy Bebop: Der Film
    Cowboy Bebop: Knockin' on Heaven's Door



    Kurzbeschreibung
    Mars, im Jahre 2071. Wenige Tage vor Halloween.
    In einem gigantischem Feuerball explodiert ein Tanklastwagen auf dem vielbefahrenen Highway One, mitten in der Metropole Alba City.

    Eine tödliche, biochemische Waffe wird freigesetzt. Hunderte von Toten im Umkreis sind die Folge.
    Die Kopfgeldjäger, unter der Führung von Spike Spiegel und Jet Black, beginnen mit ihren Ermittlungen, denn eine Prämie in der astronomischen Höhe von 300 Millionen marsianischen Woolong ködert sie. Schon bald erkennt die Crew der Bebop, dass sie es nicht nur mit dem mysteriösen Vincent Volaju und seinem perfiden Rachefeldzug gegen die Regierung zu tun haben.

    Welche Rolle spielt die Agentin Elektra? Und was geschah während des Titan-Krieges, bei dem Vincent angeblich schon vor Jahren den Tod fand?
    Die Entscheidung fällt in der Halloween Nacht...
    Format: MKV
    Sprache: Deutsch, Japanisch, Englisch
    Untertitel: Deutsch, Englisch
    Genre: Action, Abenteuer, Action, Drama, Komödie, Mystery, Scifi
    Größe bei 720p: 3,42 GB
    Größe bei 1080p: 9,20 GB
    Dauer: ~ 115 Minuten
    Jahr: 2001
    Video: 720p & 1080p
    Source: BluRay
    Subgroup / Releasegroup: LiON

    Hoster: Share-Online | Uploaded
    Passwort: siehe unten
    Onlinestatus: HD|FHD


    Datei-Info
    MediaInfo
    720p
    Code:
    General
    Unique ID                      : 252681042307581780831091621744160932108 (0xBE18993C456AFFBFBB8FB3AD7486010C)
    Complete name                  : Cowboy.Bebop.Tengoku.no.Tobira.2001.MOVIE.[GerJapEngDub][GerEngSub][720p][Bluray]-Li0N.mkv
    Format                         : Matroska
    Format version                 : Version 2
    File size                      : 3.43 GiB
    Duration                       : 1h 55mn
    Overall bit rate               : 4 262 Kbps
    Encoded date                   : UTC 2013-02-10 08:24:25
    Writing application            : mkvmerge v5.6.0 ('Kenya Kane') built on May 27 2012 16:44:04
    Writing library                : libebml v1.2.3 + libmatroska v1.3.0
    Attachements                   : Arial_Rounded_MT_Bold_Regular.TTF / BAKESBR.TTF / GaramondPremrPro-Smbd.otf / TEMPSITC.TTF / ARLRDBD.TTF
    
    Video
    ID                             : 1
    Format                         : AVC
    Format/Info                    : Advanced Video Codec
    Format profile                 : [email protected]
    Format settings, CABAC         : Yes
    Format settings, ReFrames      : 9 frames
    Muxing mode                    : Header stripping
    Codec ID                       : V_MPEG4/ISO/AVC
    Duration                       : 1h 55mn
    Bit rate                       : 2 833 Kbps
    Width                          : 1 280 pixels
    Height                         : 720 pixels
    Display aspect ratio           : 16:9
    Frame rate mode                : Constant
    Frame rate                     : 23.976 fps
    Color space                    : YUV
    Chroma subsampling             : 4:2:0
    Bit depth                      : 8 bits
    Scan type                      : Progressive
    Bits/(Pixel*Frame)             : 0.128
    Stream size                    : 2.28 GiB (66%)
    Writing library                : x264 core 129 r2245 bc13772
    Encoding settings              : cabac=1 / ref=9 / deblock=1:1:1 / analyse=0x3:0x133 / me=umh / subme=9 / psy=1 / psy_rd=0.40:0.00 / mixed_ref=1 / me_range=16 / chroma_me=1 / trellis=2 / 8x8dct=1 / cqm=0 / deadzone=21,11 / fast_pskip=1 / chroma_qp_offset=-2 / threads=6 / lookahead_threads=1 / sliced_threads=0 / nr=0 / decimate=1 / interlaced=0 / bluray_compat=0 / constrained_intra=0 / bframes=8 / b_pyramid=2 / b_adapt=2 / b_bias=0 / direct=3 / weightb=1 / open_gop=0 / weightp=2 / keyint=240 / keyint_min=23 / scenecut=40 / intra_refresh=0 / rc_lookahead=60 / rc=crf / mbtree=1 / crf=16.0 / qcomp=0.60 / qpmin=0 / qpmax=69 / qpstep=4 / ip_ratio=1.40 / aq=1:0.60
    Language                       : English
    Default                        : Yes
    Forced                         : No
    
    Audio #1
    ID                             : 2
    Format                         : AC-3
    Format/Info                    : Audio Coding 3
    Mode extension                 : CM (complete main)
    Format settings, Endianness    : Big
    Muxing mode                    : Header stripping
    Codec ID                       : A_AC3
    Duration                       : 1h 55mn
    Bit rate mode                  : Constant
    Bit rate                       : 448 Kbps
    Channel(s)                     : 6 channels
    Channel positions              : Front: L C R, Side: L R, LFE
    Sampling rate                  : 48.0 KHz
    Compression mode               : Lossy
    Stream size                    : 369 MiB (11%)
    Title                          : Deutsch AC3 5.1
    Language                       : German
    Default                        : Yes
    Forced                         : No
    
    Audio #2
    ID                             : 3
    Format                         : AC-3
    Format/Info                    : Audio Coding 3
    Mode extension                 : CM (complete main)
    Format settings, Endianness    : Big
    Muxing mode                    : Header stripping
    Codec ID                       : A_AC3
    Duration                       : 1h 55mn
    Bit rate mode                  : Constant
    Bit rate                       : 448 Kbps
    Channel(s)                     : 6 channels
    Channel positions              : Front: L C R, Side: L R, LFE
    Sampling rate                  : 48.0 KHz
    Compression mode               : Lossy
    Stream size                    : 369 MiB (11%)
    Title                          : Japanisch AC3 5.1
    Language                       : Japanese
    Default                        : No
    Forced                         : No
    
    Audio #3
    ID                             : 4
    Format                         : AC-3
    Format/Info                    : Audio Coding 3
    Mode extension                 : CM (complete main)
    Format settings, Endianness    : Big
    Muxing mode                    : Header stripping
    Codec ID                       : A_AC3
    Duration                       : 1h 55mn
    Bit rate mode                  : Constant
    Bit rate                       : 448 Kbps
    Channel(s)                     : 6 channels
    Channel positions              : Front: L C R, Side: L R, LFE
    Sampling rate                  : 48.0 KHz
    Compression mode               : Lossy
    Stream size                    : 369 MiB (11%)
    Title                          : Englisch AC3 5.1
    Language                       : English
    Default                        : No
    Forced                         : No
    
    Text #1
    ID                             : 5
    Format                         : ASS
    Codec ID                       : S_TEXT/ASS
    Codec ID/Info                  : Advanced Sub Station Alpha
    Compression mode               : Lossless
    Title                          : Deutsch-Forced [AAS][gerdhanse]
    Language                       : German
    Default                        : Yes
    Forced                         : No
    
    Text #2
    ID                             : 6
    Format                         : ASS
    Codec ID                       : S_TEXT/ASS
    Codec ID/Info                  : Advanced Sub Station Alpha
    Compression mode               : Lossless
    Title                          : Deutsch-Full [AAS][gerdhanse]
    Language                       : German
    Default                        : No
    Forced                         : No
    
    Text #3
    ID                             : 7
    Format                         : ASS
    Codec ID                       : S_TEXT/ASS
    Codec ID/Info                  : Advanced Sub Station Alpha
    Compression mode               : Lossless
    Title                          : Englisch-Full [AAS]
    Language                       : English
    Default                        : No
    Forced                         : No
    
    Text #4
    ID                             : 8
    Format                         : UTF-8
    Codec ID                       : S_TEXT/UTF8
    Codec ID/Info                  : UTF-8 Plain Text
    Title                          : Deutsch-Forced [SRT]
    Language                       : German
    Default                        : No
    Forced                         : No
    
    Text #5
    ID                             : 9
    Format                         : UTF-8
    Codec ID                       : S_TEXT/UTF8
    Codec ID/Info                  : UTF-8 Plain Text
    Title                          : Deutsch-Full [SRT]
    Language                       : German
    Default                        : No
    Forced                         : No
    
    Text #6
    ID                             : 10
    Format                         : VobSub
    Muxing mode                    : zlib
    Codec ID                       : S_VOBSUB
    Codec ID/Info                  : Picture based subtitle format used on DVDs
    Title                          : Deutsch-Full [VOB]
    Language                       : German
    Default                        : No
    Forced                         : No
    1080p
    Code:
    General
    Unique ID                      : 195064757303801600227600535127669589880 (0x92C01B105FD2496AABD23D8E1D8FC778)
    Complete name                  : Cowboy.Bebop.Tengoku.no.Tobira.2001.MOVIE.[GerJapEngDub][GerEngSub][1080p][Bluray]-Li0N.mkv
    Format                         : Matroska
    Format version                 : Version 2
    File size                      : 9.19 GiB
    Duration                       : 1h 55mn
    Overall bit rate               : 11.4 Mbps
    Encoded date                   : UTC 2013-02-10 08:35:45
    Writing application            : mkvmerge v5.6.0 ('Kenya Kane') built on May 27 2012 16:44:04
    Writing library                : libebml v1.2.3 + libmatroska v1.3.0
    Attachements                   : Arial_Rounded_MT_Bold_Regular.TTF / BAKESBR.TTF / GaramondPremrPro-Smbd.otf / TEMPSITC.TTF / ARLRDBD.TTF
    
    Video
    ID                             : 1
    Format                         : AVC
    Format/Info                    : Advanced Video Codec
    Format profile                 : [email protected]
    Format settings, CABAC         : Yes
    Format settings, ReFrames      : 5 frames
    Muxing mode                    : Header stripping
    Codec ID                       : V_MPEG4/ISO/AVC
    Duration                       : 1h 55mn
    Bit rate                       : 10.2 Mbps
    Width                          : 1 920 pixels
    Height                         : 1 080 pixels
    Display aspect ratio           : 16:9
    Frame rate mode                : Constant
    Frame rate                     : 23.976 fps
    Color space                    : YUV
    Chroma subsampling             : 4:2:0
    Bit depth                      : 8 bits
    Scan type                      : Progressive
    Bits/(Pixel*Frame)             : 0.206
    Stream size                    : 7.93 GiB (86%)
    Writing library                : x264 core 120 r2120bm 0c7dab9
    Encoding settings              : cabac=1 / ref=5 / deblock=1:1:1 / analyse=0x3:0x133 / me=umh / subme=9 / psy=1 / psy_rd=0.80:0.00 / mixed_ref=1 / me_range=24 / chroma_me=1 / trellis=1 / 8x8dct=1 / cqm=0 / deadzone=21,11 / fast_pskip=0 / chroma_qp_offset=-2 / threads=6 / sliced_threads=0 / nr=0 / decimate=1 / interlaced=0 / bluray_compat=0 / constrained_intra=0 / bframes=5 / b_pyramid=2 / b_adapt=2 / b_bias=0 / direct=3 / weightb=1 / open_gop=0 / weightp=2 / keyint=250 / keyint_min=23 / scenecut=40 / intra_refresh=0 / rc_lookahead=50 / rc=2pass / mbtree=1 / bitrate=10243 / ratetol=1.0 / qcomp=0.60 / qpmin=0 / qpmax=69 / qpstep=4 / cplxblur=20.0 / qblur=0.5 / ip_ratio=1.40 / aq=1:1.40
    Language                       : Japanese
    Default                        : Yes
    Forced                         : No
    
    Audio #1
    ID                             : 2
    Format                         : AC-3
    Format/Info                    : Audio Coding 3
    Mode extension                 : CM (complete main)
    Format settings, Endianness    : Big
    Muxing mode                    : Header stripping
    Codec ID                       : A_AC3
    Duration                       : 1h 55mn
    Bit rate mode                  : Constant
    Bit rate                       : 448 Kbps
    Channel(s)                     : 6 channels
    Channel positions              : Front: L C R, Side: L R, LFE
    Sampling rate                  : 48.0 KHz
    Compression mode               : Lossy
    Stream size                    : 369 MiB (4%)
    Title                          : Deutsch AC3 5.1
    Language                       : German
    Default                        : Yes
    Forced                         : No
    
    Audio #2
    ID                             : 3
    Format                         : AC-3
    Format/Info                    : Audio Coding 3
    Mode extension                 : CM (complete main)
    Format settings, Endianness    : Big
    Muxing mode                    : Header stripping
    Codec ID                       : A_AC3
    Duration                       : 1h 55mn
    Bit rate mode                  : Constant
    Bit rate                       : 448 Kbps
    Channel(s)                     : 6 channels
    Channel positions              : Front: L C R, Side: L R, LFE
    Sampling rate                  : 48.0 KHz
    Compression mode               : Lossy
    Stream size                    : 369 MiB (4%)
    Title                          : Japanisch AC3 5.1
    Language                       : Japanese
    Default                        : No
    Forced                         : No
    
    Audio #3
    ID                             : 4
    Format                         : AC-3
    Format/Info                    : Audio Coding 3
    Mode extension                 : CM (complete main)
    Format settings, Endianness    : Big
    Muxing mode                    : Header stripping
    Codec ID                       : A_AC3
    Duration                       : 1h 55mn
    Bit rate mode                  : Constant
    Bit rate                       : 448 Kbps
    Channel(s)                     : 6 channels
    Channel positions              : Front: L C R, Side: L R, LFE
    Sampling rate                  : 48.0 KHz
    Compression mode               : Lossy
    Stream size                    : 369 MiB (4%)
    Title                          : Englisch AC3 5.1
    Language                       : English
    Default                        : No
    Forced                         : No
    
    Text #1
    ID                             : 5
    Format                         : ASS
    Codec ID                       : S_TEXT/ASS
    Codec ID/Info                  : Advanced Sub Station Alpha
    Compression mode               : Lossless
    Title                          : Deutsch-Forced [AAS][gerdhanse]
    Language                       : German
    Default                        : Yes
    Forced                         : No
    
    Text #2
    ID                             : 6
    Format                         : ASS
    Codec ID                       : S_TEXT/ASS
    Codec ID/Info                  : Advanced Sub Station Alpha
    Compression mode               : Lossless
    Title                          : Deutsch-Full [AAS][gerdhanse]
    Language                       : German
    Default                        : No
    Forced                         : No
    
    Text #3
    ID                             : 7
    Format                         : ASS
    Codec ID                       : S_TEXT/ASS
    Codec ID/Info                  : Advanced Sub Station Alpha
    Compression mode               : Lossless
    Title                          : Englisch-Full [AAS]
    Language                       : English
    Default                        : No
    Forced                         : No
    
    Text #4
    ID                             : 8
    Format                         : UTF-8
    Codec ID                       : S_TEXT/UTF8
    Codec ID/Info                  : UTF-8 Plain Text
    Title                          : Deutsch-Forced [SRT]
    Language                       : German
    Default                        : No
    Forced                         : No
    
    Text #5
    ID                             : 9
    Format                         : UTF-8
    Codec ID                       : S_TEXT/UTF8
    Codec ID/Info                  : UTF-8 Plain Text
    Title                          : Deutsch-Full [SRT]
    Language                       : German
    Default                        : No
    Forced                         : No
    
    Text #6
    ID                             : 10
    Format                         : VobSub
    Muxing mode                    : zlib
    Codec ID                       : S_VOBSUB
    Codec ID/Info                  : Picture based subtitle format used on DVDs
    Title                          : Deutsch-Full [VOB]
    Language                       : German
    Default                        : No
    Forced                         : No


    4 Parts bei 720p
    10 Parts bei 1080p


    || Download & Passwort ||


    Geschützter Bereich - Bedanke dich beim Poster, um den Bereich sehen zu können
    Hier erfährst Du wie Du Dich bedanken kannst oder werde jetzt Premium Mitglied ab einer Spende von 5€ und erhalte sofortigen Zugriff auf den Downloadbereich!

    SUPPORT UND REUP ANFRAGEN NUR >> [Links sind nur für registrierte und aktivierte Nutzer sichtbar. Klicke hier um dich zu registrieren.] <<
    Bitte IMMER den Thread-Link mitschicken.

  2. 15 Benutzer sagen Danke:

    alecander (4. December 2016),chopper23 (8. August 2016),foxtrot (4. November 2016),frankra (24. October 2016),HellSPawn91 (10. September 2016),masta.ace (11. September 2016),midnighter (9. August 2016),PaDDyHaase (8. August 2016),Physicaligraphy (21. November 2016),Porco (8. August 2016),ShAd_1337 (1. December 2016),shawn10398 (6. September 2016),SiiiNaN (1. December 2016),Teramex (5. September 2016),tigerhai (8. August 2016)

Lesezeichen

Berechtigungen

  • Neue Themen erstellen: Nein
  • Themen beantworten: Nein
  • Anhänge hochladen: Nein
  • Beiträge bearbeiten: Nein
  •  

1 2 3 4 5 6 7 8 9 10 11 12 13 14 15 16 17 18 19 20 21 22 23 24 25 26 27 28 29 30 31 32 33 34 35 36 37 38 39 40 41 42 43 44 45 46 47 48 49 50 51 52 53 54 55 56 57 58 59 60 61 62 63 64 65 66 67 68 69 70 71 72 73 74 75 76 77 78 79 80 81 82 83 84 85 86 87 88 89 90 91 92 93 94 95 96 97 98 99 100 101 102 103 104 105 106 107 108 109 110 111 112 113 114 115 116 117 118 119 120 121 122 123 124 125 126 127 128 129 130 131 132 133 134 135 136 137 138 139 140 141 142 143 144 145 146 147 148 149 150 151 152 153 154 155 156 157 158