Ergebnis 1 bis 1 von 1

Thema: Cyber City Oedo 808 Remastered Ger-Jap-Eng-Dub Ger-Eng-Sub 1990 AC3 ML DVDRip x264 - iND

Dieser Thread wurde noch nicht bewertet. Bewerte ihn doch, wenn er dir gefällt!
  1. #1
    High Quality Anime Avatar von Uploading123
    Registriert seit
    Mar 2013
    Beiträge
    1.009
    Punkte
    44.135
    Errungenschaften:
    TomodachisTagger Amateur25000 ErfahrungspunkteHikikomoriKapitän

    Cyber City Oedo 808 Remastered Ger-Jap-Eng-Dub Ger-Eng-Sub 1990 AC3 ML DVDRip x264 - iND


    Cyber City Oedo 808 Remastered German 1990 AC3 ML DVDRip x264 - iND




    Im Jahr 2808 verschwenden Kriminelle keine unnötige Zeit mehr in Gefängniszellen. Stattdessen wird ihnen die Möglichkeit gegeben, ihre Strafe zu verkürzen, indem sie für die Cyber Polizei arbeiten und anderen Verbrechern das Handwerk legen. Doch um sicher zu gehen, dass die Kriminellen ihren Job auch erledigen, bekommt jeder von ihnen ein spezielles Halsband angelegt. Versuchen sie es abzunehmen oder überschreiten sie das abgesprochene Zeitlimit ist der Selbstzerstörungsmechanismus aktiviert...


    Größe: 3.13 GB // ca. 1 GB pro Folge
    Laufzeit: ca. 40 Minuten pro Folge
    Auflösung: 714x480
    Bittiefe: 8-Bit
    Audio: AC3 192 kbps (Deutsch) // AC3 448 kbps (Japanisch + Englisch)
    Format: mkv
    Codec: x264
    Sprache: Deutsch // Japanisch // Englisch
    Untertitel: Deutsch Forced // Deutsch // Englisch
    Release Group: iND
    Episodenanzahl: 03/03

    Mediainfo
    Spoiler

    General
    Unique ID : 171222552532931805505250813025478132900 (0x80D0439C90EB7DBBACA1DEF10D0E44A4)
    Complete name :Cyber City Oedo 808 - 01 - Akte vergangener Zeiten [Jap.Ger.Eng.Dub][Ger.Eng.Sub][MeisterMutaito].mkv
    Format : Matroska
    Format version : Version 2
    File size : 1.07 GiB
    Duration : 42mn 2s
    Overall bit rate : 3 650 Kbps
    Movie name : Cyber City Oedo 808 Episode 1 - Akte vergangener Zeiten
    Encoded date : UTC 2012-09-05 12:29:21
    Writing application : mkvmerge v5.6.0 ('Kenya Kane') built on May 27 2012 16:44:04
    Writing library : libebml v1.2.3 + libmatroska v1.3.0
    Attachment : Yes / Yes / Yes / Yes / Yes / Yes / Yes / Yes / Yes / Yes / Yes / Yes / Yes

    Video
    ID : 1
    Format : AVC
    Format/Info : Advanced Video Codec
    Format profile : [email protected]
    Format settings, CABAC : Yes
    Format settings, ReFrames : 16 frames
    Muxing mode : Header stripping
    Codec ID : V_MPEG4/ISO/AVC
    Duration : 42mn 2s
    Bit rate : 2 490 Kbps
    Width : 714 pixels
    Height : 480 pixels
    Display aspect ratio : 4:3
    Original display aspect ratio : 3:2
    Frame rate mode : Constant
    Frame rate : 23.976 fps
    Color space : YUV
    Chroma subsampling : 4:2:0
    Bit depth : 8 bits
    Scan type : Progressive
    Bits/(Pixel*Frame) : 0.303
    Stream size : 749 MiB (68%)
    Title : [MeisterMutaito]
    Writing library : x264 core 98 r1629 2e81ce1
    Encoding settings : cabac=1 / ref=16 / deblock=1:0:0 / analyse=0x3:0x133 / me=umh / subme=10 / psy=1 / psy_rd=1.00:0.00 / mixed_ref=1 / me_range=16 / chroma_me=1 / trellis=2 / 8x8dct=1 / cqm=0 / deadzone=21,11 / fast_pskip=0 / chroma_qp_offset=-2 / threads=3 / sliced_threads=0 / nr=0 / decimate=1 / interlaced=0 / constrained_intra=0 / bframes=10 / b_pyramid=2 / b_adapt=2 / b_bias=0 / direct=1 / weightb=1 / weightp=2 / keyint=250 / keyint_min=25 / scenecut=40 / intra_refresh=0 / rc=crf / mbtree=0 / crf=16.0 / qcomp=0.80 / qpmin=10 / qpmax=23 / qpstep=4 / ip_ratio=1.40 / pb_ratio=1.30 / aq=1:0.80
    Language : German
    Default : Yes
    Forced : No

    Audio #1
    ID : 2
    Format : AC-3
    Format/Info : Audio Coding 3
    Mode extension : CM (complete main)
    Format settings, Endianness : Big
    Muxing mode : Header stripping
    Codec ID : A_AC3
    Duration : 42mn 2s
    Bit rate mode : Constant
    Bit rate : 192 Kbps
    Channel count : 2 channels
    Channel positions : Front: L R
    Sampling rate : 48.0 KHz
    Bit depth : 16 bits
    Compression mode : Lossy
    Stream size : 57.7 MiB (5%)
    Title : Deutsch (AC3)
    Language : German
    Default : Yes
    Forced : No

    Audio #2
    ID : 3
    Format : AC-3
    Format/Info : Audio Coding 3
    Mode extension : CM (complete main)
    Format settings, Endianness : Big
    Muxing mode : Header stripping
    Codec ID : A_AC3
    Duration : 42mn 2s
    Bit rate mode : Constant
    Bit rate : 448 Kbps
    Channel count : 2 channels
    Channel positions : Front: L R
    Sampling rate : 48.0 KHz
    Bit depth : 16 bits
    Compression mode : Lossy
    Stream size : 135 MiB (12%)
    Title : Japanisch (AC3)
    Language : Japanese
    Default : No
    Forced : No

    Audio #3
    ID : 4
    Format : AC-3
    Format/Info : Audio Coding 3
    Mode extension : CM (complete main)
    Format settings, Endianness : Big
    Muxing mode : Header stripping
    Codec ID : A_AC3
    Duration : 42mn 2s
    Bit rate mode : Constant
    Bit rate : 448 Kbps
    Channel count : 2 channels
    Channel positions : Front: L R
    Sampling rate : 48.0 KHz
    Bit depth : 16 bits
    Compression mode : Lossy
    Delay relative to video : 24ms
    Stream size : 135 MiB (12%)
    Title : Englisch (AC3)
    Language : English
    Default : No
    Forced : No

    Text #1
    ID : 5
    Format : ASS
    Codec ID : S_TEXT/ASS
    Codec ID/Info : Advanced Sub Station Alpha
    Compression mode : Lossless
    Title : Deutsch Forced (ASS)
    Language : German
    Default : Yes
    Forced : No

    Text #2
    ID : 6
    Format : ASS
    Codec ID : S_TEXT/ASS
    Codec ID/Info : Advanced Sub Station Alpha
    Compression mode : Lossless
    Title : Deutsch (ASS)
    Language : German
    Default : No
    Forced : No

    Text #3
    ID : 7
    Format : ASS
    Codec ID : S_TEXT/ASS
    Codec ID/Info : Advanced Sub Station Alpha
    Compression mode : Lossless
    Title : Englisch (ASS)
    Language : English
    Default : No
    Forced : No


    // Folgen einzeln ladbar //

    Mirrors kompatibel

    Geschützter Bereich - Bedanke dich beim Poster, um den Bereich sehen zu können
    Hier erfährst Du wie Du Dich bedanken kannst oder werde jetzt Premium Mitglied ab einer Spende von 5€ und erhalte sofortigen Zugriff auf den Downloadbereich!


    Geschützter Bereich - Bedanke dich beim Poster, um den Bereich sehen zu können
    Hier erfährst Du wie Du Dich bedanken kannst oder werde jetzt Premium Mitglied ab einer Spende von 5€ und erhalte sofortigen Zugriff auf den Downloadbereich!



    Spoiler
    Insanity

    Ihr seht nur Oboom als Mirror, obwohl Uploaded bzw. Share-Online angegeben ist?
    [Links sind nur für registrierte und aktivierte Nutzer sichtbar. Klicke hier um dich zu registrieren.]

  2. 24 Benutzer sagen Danke:

    Akio (5. November 2015),Dexter121 (14. April 2015),dkomm (22. August 2015),Draagul (15. July 2014),freakwatcher (26. September 2015),Gatti1983 (17. February 2015),Kirak (9. June 2014),KiritoMazayo (6. November 2015),kuno86 (24. January 2015),Maggotcarrier (24. April 2015),midnighter (28. December 2014),mongokind_inactive (17. September 2014),Mr.Websta (13. August 2014),Pacman_on_Crack (14. April 2016),pahso (27. June 2016),Porco (11. May 2014),qenda (21. December 2014),Seidou (25. October 2015),syncity (11. March 2016),Tai1988 (2. August 2015),Wolfcore (27. July 2014),Zaisen (7. May 2014),ZomKne (29. June 2014)

Lesezeichen

Berechtigungen

  • Neue Themen erstellen: Nein
  • Themen beantworten: Nein
  • Anhänge hochladen: Nein
  • Beiträge bearbeiten: Nein
  •  

1 2 3 4 5 6 7 8 9 10 11 12 13 14 15 16 17 18 19 20 21 22 23 24 25 26 27 28 29 30 31 32 33 34 35 36 37 38 39 40 41 42 43 44 45 46 47 48 49 50 51 52 53 54 55 56 57 58 59 60 61 62 63 64 65 66 67 68 69 70 71 72 73 74 75 76 77 78 79 80 81 82 83 84 85 86 87 88 89 90 91 92 93 94 95 96 97 98 99 100 101 102 103 104 105 106 107 108 109 110 111 112 113 114 115 116 117 118 119 120 121 122 123 124 125 126 127 128 129 130 131 132 133 134 135 136 137 138 139 140 141 142 143 144 145 146 147 148 149 150 151 152 153 154 155 156 157 158