Ergebnis 1 bis 1 von 1

Thema: Das Königreich der Katzen [Ger-Dub] [DVDRiP]

Dieser Thread wurde noch nicht bewertet. Bewerte ihn doch, wenn er dir gefällt!
  1. #1
    Treues Mitglied Avatar von Sairenji
    Registriert seit
    Aug 2013
    Beiträge
    299
    Punkte
    11.339
    Errungenschaften:
    TomodachisTagger Profi10000 ErfahrungspunkteHikikomori

    Das Königreich der Katzen [Ger-Dub] [DVDRiP]





    Der Hauptcharakter in dieser Geschichte ist Haru, ein normales 17-jähriges Mädchen. Sie hat keine besonderen Fähigkeiten und ist auch nicht außergewöhnlich hübsch. Wenn sie mit der Realität konfrontiert wird, ist sie nicht in der Lage Entscheidungen zu treffen und lässt sich deshalb sehr stark von anderen Menschen beeinflussen. Eines Tages rettet Haru einer Katze selbstlos das Leben. Diese Katze stellt sich als Prinz des Königreichs der Katzen heraus und durch merkwürdige Umstände findet sich Haru kurze Zeit später als angehende Braut des Prinzen in der Katzenwelt wieder. Können Muta und der Baron das Mädchen aus dieser äußerst misslichen Lage befreien?

    Titel: Das Königreich der Katzen | Genre: Animation | Sprache: Deutsch

    Video: DVDRiP | Audio: AC3 5.1 | Format: .avi

    Das.Koenigreich.der.Katzen.German.2002.INTERNAL.DV DRiP.XviD-FmE

    Infos: [Links sind nur für registrierte und aktivierte Nutzer sichtbar. Klicke hier um dich zu registrieren.] | Trailer: [Links sind nur für registrierte und aktivierte Nutzer sichtbar. Klicke hier um dich zu registrieren.] | Größe: 701 MB | Parts: 2

    Geschützter Bereich - Bedanke dich beim Poster, um den Bereich sehen zu können
    Hier erfährst Du wie Du Dich bedanken kannst oder werde jetzt Premium Mitglied ab einer Spende von 5€ und erhalte sofortigen Zugriff auf den Downloadbereich!


    NFO:
    Spoiler
    Code:
    General
    Format                      : AVI
    Format/Info                 : Audio Video Interleave
    File size                   : 701 MiB
    Duration                    : 1h 11mn
    Overall bit rate            : 1 363 Kbps
    Writing application         : VirtualDubMod 1.5.4.1 (build 2178/release)
    Writing library             : VirtualDubMod build 2178/release
    
    Video
    ID                          : 0
    Format                      : MPEG-4 Visual
    Format profile              : Advanced [email protected]
    Format settings, BVOP       : 1
    Format settings, QPel       : No
    Format settings, GMC        : No warppoints
    Format settings, Matrix     : Custom
    Codec ID                    : XVID
    Codec ID/Hint               : XviD
    Duration                    : 1h 11mn
    Bit rate                    : 908 Kbps
    Width                       : 640 pixels
    Height                      : 368 pixels
    Display aspect ratio        : 1.739
    Frame rate                  : 25.000 fps
    Color space                 : YUV
    Chroma subsampling          : 4:2:0
    Bit depth                   : 8 bits
    Scan type                   : Progressive
    Compression mode            : Lossy
    Bits/(Pixel*Frame)          : 0.154
    Stream size                 : 467 MiB (67%)
    Writing library             : XviD 1.2.0.dev47 (UTC 2006-11-01)
    
    Audio
    ID                          : 1
    Format                      : AC-3
    Format/Info                 : Audio Coding 3
    Mode extension              : CM (complete main)
    Format settings, Endianness : Big
    Codec ID                    : 2000
    Duration                    : 1h 11mn
    Bit rate mode               : Constant
    Bit rate                    : 448 Kbps
    Channel(s)                  : 6 channels
    Channel positions           : Front: L C R, Side: L R, LFE
    Sampling rate               : 48.0 KHz
    Bit depth                   : 16 bits
    Compression mode            : Lossy
    Stream size                 : 230 MiB (33%)
    Alignment                   : Split accross interleaves
    Interleave, duration        : 96 ms (2.40 video frames)
    Interleave, preload duratio : 96 ms
    Language                    : Deutsch


    Inaktiver Uploader!

    Alle Re-Upload-Anfragen öffentlich im [Links sind nur für registrierte und aktivierte Nutzer sichtbar. Klicke hier um dich zu registrieren.] posten!

  2. 10 Benutzer sagen Danke:

    Akio (21. December 2015),basdi (4. February 2016),Chiza Akira (5. April 2015),Ezuriyl_inactive (21. April 2015),Inowan (27. May 2016),judith19 (7. May 2015),Juser (1. September 2015),Kiyohime (19. November 2015),MaTRiiX (14. April 2015),midnighter (8. May 2015)

Lesezeichen

Berechtigungen

  • Neue Themen erstellen: Nein
  • Themen beantworten: Nein
  • Anhänge hochladen: Nein
  • Beiträge bearbeiten: Nein
  •  

1 2 3 4 5 6 7 8 9 10 11 12 13 14 15 16 17 18 19 20 21 22 23 24 25 26 27 28 29 30 31 32 33 34 35 36 37 38 39 40 41 42 43 44 45 46 47 48 49 50 51 52 53 54 55 56 57 58 59 60 61 62 63 64 65 66 67 68 69 70 71 72 73 74 75 76 77 78 79 80 81 82 83 84 85 86 87 88 89 90 91 92 93 94 95 96 97 98 99 100 101 102 103 104 105 106 107 108 109 110 111 112 113 114 115 116 117 118 119 120 121 122 123 124 125 126 127 128 129 130 131 132 133 134 135 136 137 138 139 140 141 142 143 144 145 146 147 148 149 150 151 152 153 154 155 156 157 158